  0
SECTION
  2
HEADER
  9
$ACADVER
  1
AC1006
  9
$DWGCODEPAGE
  3
ansi_949
  9
$INSBASE
 10
0.0
 20
0.0
 30
0.0
  9
$EXTMIN
 10
-10.15801093460158
 20
-6.683457223184305
  9
$EXTMAX
 10
16.81446712711066
 20
49.80073221288972
  9
$LIMMIN
 10
0.0
 20
0.0
  9
$LIMMAX
 10
12.0
 20
9.0
  9
$ORTHOMODE
 70
     1
  9
$REGENMODE
 70
     1
  9
$FILLMODE
 70
     1
  9
$QTEXTMODE
 70
     0
  9
$MIRRTEXT
 70
     0
  9
$DRAGMODE
 70
     2
  9
$LTSCALE
 40
1.0
  9
$OSMODE
 70
    37
  9
$ATTMODE
 70
     1
  9
$TEXTSIZE
 40
0.2
  9
$TRACEWID
 40
0.05
  9
$TEXTSTYLE
  7
STANDARD
  9
$CLAYER
  8
0
  9
$CELTYPE
  6
BYLAYER
  9
$CECOLOR
 62
   256
  9
$DIMSCALE
 40
1.0
  9
$DIMASZ
 40
1.5
  9
$DIMEXO
 40
0.5
  9
$DIMDLI
 40
2.0
  9
$DIMRND
 40
0.0
  9
$DIMDLE
 40
0.0
  9
$DIMEXE
 40
0.5
  9
$DIMTP
 40
0.0
  9
$DIMTM
 40
0.0
  9
$DIMTXT
 40
2.0
  9
$DIMCEN
 40
0.0
  9
$DIMTSZ
 40
0.0
  9
$DIMTOL
 70
     0
  9
$DIMLIM
 70
     0
  9
$DIMTIH
 70
     0
  9
$DIMTOH
 70
     0
  9
$DIMSE1
 70
     0
  9
$DIMSE2
 70
     0
  9
$DIMTAD
 70
     1
  9
$DIMZIN
 70
     0
  9
$DIMBLK
  1

  9
$DIMASO
 70
     1
  9
$DIMSHO
 70
     1
  9
$DIMPOST
  1

  9
$DIMAPOST
  1

  9
$DIMALT
 70
     0
  9
$DIMALTD
 70
     2
  9
$DIMALTF
 40
25.4
  9
$DIMLFAC
 40
1.0
  9
$DIMTOFL
 70
     0
  9
$DIMTVP
 40
0.0
  9
$DIMTIX
 70
     0
  9
$DIMSOXD
 70
     0
  9
$DIMSAH
 70
     0
  9
$DIMBLK1
  1

  9
$DIMBLK2
  1

  9
$LUNITS
 70
     2
  9
$LUPREC
 70
     4
  9
$SKETCHINC
 40
0.1
  9
$FILLETRAD
 40
0.0
  9
$AUNITS
 70
     0
  9
$AUPREC
 70
     0
  9
$MENU
  1
.
  9
$ELEVATION
 40
0.0
  9
$THICKNESS
 40
0.0
  9
$LIMCHECK
 70
     0
  9
$CHAMFERA
 40
0.0
  9
$CHAMFERB
 40
0.0
  9
$SKPOLY
 70
     0
  9
$TDCREATE
 40
2453353.842125822
  9
$TDUPDATE
 40
2459503.472615382
  9
$TDINDWG
 40
0.0389908333
  9
$TDUSRTIMER
 40
0.0389792361
  9
$USRTIMER
 70
     1
  9
$ANGBASE
 50
0.0
  9
$ANGDIR
 70
     0
  9
$PDMODE
 70
     0
  9
$PDSIZE
 40
0.0
  9
$PLINEWID
 40
0.0
  9
$COORDS
 70
     1
  9
$SPLFRAME
 70
     0
  9
$SPLINETYPE
 70
     6
  9
$SPLINESEGS
 70
     8
  9
$ATTDIA
 70
     0
  9
$ATTREQ
 70
     1
  9
$HANDLING
 70
     1
  9
$HANDSEED
  5
12B8
  9
$SURFTAB1
 70
     6
  9
$SURFTAB2
 70
     6
  9
$SURFTYPE
 70
     6
  9
$SURFU
 70
     6
  9
$SURFV
 70
     6
  9
$UCSNAME
  2

  9
$UCSORG
 10
0.0
 20
0.0
 30
0.0
  9
$UCSXDIR
 10
1.0
 20
0.0
 30
0.0
  9
$UCSYDIR
 10
0.0
 20
1.0
 30
0.0
  9
$USERI1
 70
     0
  9
$USERI2
 70
     0
  9
$USERI3
 70
     0
  9
$USERI4
 70
     0
  9
$USERI5
 70
     0
  9
$USERR1
 40
0.0
  9
$USERR2
 40
0.0
  9
$USERR3
 40
0.0
  9
$USERR4
 40
0.0
  9
$USERR5
 40
0.0
  9
$WORLDVIEW
 70
     1
  0
ENDSEC
  0
SECTION
  2
TABLES
  0
TABLE
  2
VPORT
 70
     1
  0
VPORT
  2
*ACTIVE
 70
     0
 10
0.0
 20
0.0
 11
1.0
 21
1.0
 12
3.328228096254536
 22
21.55863749485271
 13
0.0
 23
0.0
 14
0.5
 24
0.5
 15
0.5
 25
0.5
 16
0.0
 26
0.0
 36
1.0
 17
0.0
 27
0.0
 37
0.0
 40
57.6138732247955
 41
1.701534170153416
 42
50.0
 43
0.0
 44
0.0
 50
0.0
 51
0.0
 71
    16
 72
  1000
 73
     1
 74
     3
 75
     0
 76
     0
 77
     0
 78
     0
  0
ENDTAB
  0
TABLE
  2
LTYPE
 70
     1
  0
LTYPE
  2
CONTINUOUS
 70
     0
  3
Solid line
 72
    65
 73
     0
 40
0.0
  0
ENDTAB
  0
TABLE
  2
LAYER
 70
     2
  0
LAYER
  2
0
 70
     0
 62
     7
  6
CONTINUOUS
  0
LAYER
  2
DEFPOINTS
 70
     0
 62
     7
  6
CONTINUOUS
  0
ENDTAB
  0
TABLE
  2
STYLE
 70
     2
  0
STYLE
  2
STANDARD
 70
     0
 40
0.0
 41
1.0
 50
0.0
 71
     0
 42
0.2
  3
IC-txt.shx
  4

  0
STYLE
  2
돋움
 70
     0
 40
0.0
 41
1.0
 50
0.0
 71
     0
 42
0.2
  3
Dotum.ttf
  4

  0
ENDTAB
  0
TABLE
  2
VIEW
 70
     0
  0
ENDTAB
  0
TABLE
  2
UCS
 70
     0
  0
ENDTAB
  0
ENDSEC
  0
SECTION
  2
BLOCKS
  0
BLOCK
  8
0
  2
*D1
 70
     1
 10
0.0
 20
0.0
 30
0.0
  0
POINT
  5
1227
  8
DEFPOINTS
  6
BYBLOCK
 62
     3
 10
-2.0
 20
44.5
 30
0.0
  0
POINT
  5
1228
  8
DEFPOINTS
  6
BYBLOCK
 62
     3
 10
2.0
 20
44.5
 30
0.0
  0
LINE
  5
1229
  8
0
  6
BYBLOCK
 62
     3
 10
-2.0
 20
45.0
 30
0.0
 11
-2.0
 21
48.1020365607158
 31
0.0
  0
LINE
  5
122A
  8
0
  6
BYBLOCK
 62
     3
 10
2.0
 20
45.0
 30
0.0
 11
2.0
 21
48.1020365607158
 31
0.0
  0
LINE
  5
122B
  8
0
  6
BYBLOCK
 62
     3
 10
-2.0
 20
47.6020365607158
 30
0.0
 11
2.0
 21
47.6020365607158
 31
0.0
  0
SOLID
  5
122C
  8
0
  6
BYBLOCK
 62
     3
 10
-2.0
 20
47.6020365607158
 30
0.0
 11
-0.5
 21
47.35203656071575
 31
0.0
 12
-0.5
 22
47.85203656071585
 32
0.0
 13
-0.5
 23
47.85203656071585
 33
0.0
  0
SOLID
  5
122D
  8
0
  6
BYBLOCK
 62
     3
 10
2.0
 20
47.6020365607158
 30
0.0
 11
0.5
 21
47.35203656071575
 31
0.0
 12
0.5
 22
47.85203656071585
 32
0.0
 13
0.5
 23
47.85203656071585
 33
0.0
  0
INSERT
  5
122E
  8
0
  6
BYBLOCK
 62
     3
  2
*X6
 10
0.0
 20
0.0
 30
0.0
  0
ENDBLK
  8
0
  0
BLOCK
  8
0
  2
*D2
 70
     1
 10
0.0
 20
0.0
 30
0.0
  0
POINT
  5
1277
  8
DEFPOINTS
  6
BYBLOCK
 62
     3
 10
0.0
 20
0.45
 30
0.0
  0
POINT
  5
1278
  8
DEFPOINTS
  6
BYBLOCK
 62
     3
 10
0.0
 20
0.0
 30
0.0
  0
LINE
  5
1279
  8
0
  6
BYBLOCK
 62
     3
 10
0.5
 20
0.45
 30
0.0
 11
9.057137466937856
 21
0.45
 31
0.0
  0
LINE
  5
127A
  8
0
  6
BYBLOCK
 62
     3
 10
0.5
 20
0.0
 30
0.0
 11
9.057137466937856
 21
0.0
 31
0.0
  0
LINE
  5
127B
  8
0
  6
BYBLOCK
 62
     3
 10
8.557137466937856
 20
1.95
 30
0.0
 11
8.557137466937856
 21
3.45
 31
0.0
  0
SOLID
  5
127C
  8
0
  6
BYBLOCK
 62
     3
 10
8.557137466937856
 20
0.45
 30
0.0
 11
8.307137466937807
 21
1.95
 31
0.0
 12
8.807137466937906
 22
1.95
 32
0.0
 13
8.807137466937906
 23
1.95
 33
0.0
  0
LINE
  5
127D
  8
0
  6
BYBLOCK
 62
     3
 10
8.557137466937856
 20
-1.5
 30
0.0
 11
8.557137466937856
 21
-6.683457223184305
 31
0.0
  0
SOLID
  5
127E
  8
0
  6
BYBLOCK
 62
     3
 10
8.557137466937856
 20
0.0
 30
0.0
 11
8.307137466937807
 21
-1.5
 31
0.0
 12
8.807137466937906
 22
-1.5
 32
0.0
 13
8.807137466937906
 23
-1.5
 33
0.0
  0
TEXT
  5
127F
  8
0
  6
CONTINUOUS
 62
     3
 10
8.463061379981333
 20
-6.631630101031094
 30
0.0
 40
2.0
  1
0.5
 50
90.0
  7
돋움
  0
ENDBLK
  8
0
  0
BLOCK
  8
0
  2
*D3
 70
     1
 10
0.0
 20
0.0
 30
0.0
  0
POINT
  5
1259
  8
DEFPOINTS
  6
BYBLOCK
 62
     3
 10
0.0
 20
-0.0000000000000036
 30
0.0
  0
POINT
  5
125A
  8
DEFPOINTS
  6
BYBLOCK
 62
     3
 10
0.2500000000000001
 20
2.0
 30
0.0
  0
LINE
  5
125B
  8
0
  6
BYBLOCK
 62
     3
 10
0.5
 20
-0.0000000000000036
 30
0.0
 11
13.26738532090152
 21
-0.0000000000000036
 31
0.0
  0
LINE
  5
125C
  8
0
  6
BYBLOCK
 62
     3
 10
0.75
 20
2.0
 30
0.0
 11
13.26738532090152
 21
2.0
 31
0.0
  0
LINE
  5
125D
  8
0
  6
BYBLOCK
 62
     3
 10
12.76738532090152
 20
-1.500000000000004
 30
0.0
 11
12.76738532090152
 21
-3.000000000000004
 31
0.0
  0
SOLID
  5
125E
  8
0
  6
BYBLOCK
 62
     3
 10
12.76738532090152
 20
-0.0000000000000036
 30
0.0
 11
13.01738532090157
 21
-1.500000000000004
 31
0.0
 12
12.51738532090147
 22
-1.500000000000004
 32
0.0
 13
12.51738532090147
 23
-1.500000000000004
 33
0.0
  0
LINE
  5
125F
  8
0
  6
BYBLOCK
 62
     3
 10
12.76738532090152
 20
3.5
 30
0.0
 11
12.76738532090152
 21
8.291277091752951
 31
0.0
  0
SOLID
  5
1260
  8
0
  6
BYBLOCK
 62
     3
 10
12.76738532090152
 20
2.0
 30
0.0
 11
13.01738532090157
 21
3.5
 31
0.0
 12
12.51738532090147
 22
3.5
 32
0.0
 13
12.51738532090147
 23
3.5
 33
0.0
  0
TEXT
  5
1261
  8
0
  6
CONTINUOUS
 62
     3
 10
12.67466792959717
 20
6.901458251173242
 30
0.0
 40
2.0
  1
2
 50
90.0
  7
돋움
  0
ENDBLK
  8
0
  0
BLOCK
  8
0
  2
*D4
 70
     1
 10
0.0
 20
0.0
 30
0.0
  0
POINT
  5
1206
  8
DEFPOINTS
  6
BYBLOCK
 62
     3
 10
1.5
 20
45.0
 30
0.0
  0
POINT
  5
1207
  8
DEFPOINTS
  6
BYBLOCK
 62
     3
 10
0.0
 20
-0.0000000000000036
 30
0.0
  0
LINE
  5
1208
  8
0
  6
BYBLOCK
 62
     3
 10
2.0
 20
45.0
 30
0.0
 11
16.81446712711066
 21
45.0
 31
0.0
  0
LINE
  5
1209
  8
0
  6
BYBLOCK
 62
     3
 10
0.5
 20
0.0
 30
0.0
 11
16.81446712711066
 21
0.0
 31
0.0
  0
LINE
  5
120A
  8
0
  6
BYBLOCK
 62
     3
 10
16.31446712711066
 20
45.0
 30
0.0
 11
16.31446712711066
 21
0.0
 31
0.0
  0
SOLID
  5
120B
  8
0
  6
BYBLOCK
 62
     3
 10
16.31446712711066
 20
45.0
 30
0.0
 11
16.06446712711061
 21
43.5
 31
0.0
 12
16.56446712711071
 22
43.5
 32
0.0
 13
16.56446712711071
 23
43.5
 33
0.0
  0
SOLID
  5
120C
  8
0
  6
BYBLOCK
 62
     3
 10
16.31446712711066
 20
0.0
 30
0.0
 11
16.06446712711061
 21
1.5
 31
0.0
 12
16.56446712711071
 22
1.5
 32
0.0
 13
16.56446712711071
 23
1.5
 33
0.0
  0
TEXT
  5
120D
  8
0
  6
CONTINUOUS
 62
     3
 10
16.22039104015413
 20
20.88095238095238
 30
0.0
 40
2.0
  1
45
 50
90.0
  7
돋움
  0
ENDBLK
  8
0
  0
BLOCK
  8
0
  2
*D5
 70
     1
 10
0.0
 20
0.0
 30
0.0
  0
LINE
  5
1105
  8
0
  6
BYBLOCK
 62
     3
 10
-1.531914552950379
 20
-0.5960128855158418
 30
0.0
 11
-9.682477032752965
 21
-5.097230573431029
 31
0.0
  0
LINE
  5
1106
  8
0
  6
BYBLOCK
 62
     3
 10
-6.279390700855648
 20
-3.217847104057317
 30
0.0
 11
-6.279390700855648
 21
-3.217847104057317
 31
0.0
  0
SOLID
  5
1107
  8
0
  6
BYBLOCK
 62
     3
 10
-0.2188449361357684
 20
0.1291410163548797
 30
0.0
 11
-1.652773536595523
 21
-0.3771679493800296
 31
0.0
 12
-1.411055569305234
 22
-0.8148578216516539
 32
0.0
 13
-1.411055569305234
 23
-0.8148578216516539
 33
0.0
  0
TEXT
  5
1108
  8
0
  6
CONTINUOUS
 62
     3
 10
-9.866103662880331
 20
-5.095827424159912
 30
0.0
 40
2.0
  1
R0.25
 50
28.91004982911273
  7
돋움
  0
POINT
  5
1109
  8
DEFPOINTS
  6
BYBLOCK
 62
     3
 10
0.0
 20
0.25
 30
0.0
  0
POINT
  5
110A
  8
DEFPOINTS
  6
BYBLOCK
 62
     3
 10
-0.2188449361357684
 20
0.1291410163548797
 30
0.0
  0
ENDBLK
  8
0
  0
BLOCK
  8
0
  2
*X6
 70
     1
 10
0.0
 20
0.0
 30
0.0
  0
TEXT
  5
12B4
  8
0
  6
CONTINUOUS
 62
     3
 10
-1.949728545590945
 20
47.74638438680276
 30
0.0
 40
2.0
  1
\U+2205
  7
돋움
  0
TEXT
  5
12B5
  8
0
  6
CONTINUOUS
 62
     3
 10
-0.1402047360671352
 20
47.74638438680276
 30
0.0
 40
2.0
  1
4
  7
돋움
  0
ENDBLK
  8
0
  0
ENDSEC
  0
SECTION
  2
ENTITIES
  0
LINE
  5
394
  8
0
 10
-1.5
 20
45.0
 30
0.0
 11
1.5
 21
45.0
 31
0.0
  0
ARC
  5
397
  8
0
 10
0.0
 20
0.25
 30
0.0
 40
0.25
 50
180.0
 51
0.0000000000008142
  0
LINE
  5
398
  8
0
 10
-2.0
 20
8.53108891324554
 30
0.0
 11
-2.0
 21
44.5
 31
0.0
  0
LINE
  5
399
  8
0
 10
2.0
 20
8.533742563054588
 30
0.0
 11
2.0
 21
44.5
 31
0.0
  0
LINE
  5
39A
  8
0
 10
0.2500000000000001
 20
2.002653649809062
 30
0.0
 11
2.0
 21
8.533742563054588
 31
0.0
  0
LINE
  5
39B
  8
0
 10
-0.2499999999999999
 20
2.0
 30
0.0
 11
-2.0
 21
8.53108891324554
 31
0.0
  0
LINE
  5
39C
  8
0
 10
-2.0
 20
44.5
 30
0.0
 11
2.0
 21
44.5
 31
0.0
  0
LINE
  5
39D
  8
0
 10
-2.0
 20
44.5
 30
0.0
 11
-1.5
 21
45.0
 31
0.0
  0
LINE
  5
39E
  8
0
 10
2.0
 20
44.5
 30
0.0
 11
1.5
 21
45.0
 31
0.0
  0
DIMENSION
  5
39F
  8
0
  2
*D1
 10
2.0
 20
47.6020365607158
 30
0.0
 11
-0.3306809265433256
 21
47.6020365607158
 31
0.0
 70
   160
  1
%%c<>
 13
-2.0
 23
44.5
 33
0.0
 14
2.0
 24
44.5
 34
0.0
  0
DIMENSION
  5
3AD
  8
0
  2
*D2
 10
8.557137466937856
 20
0.0
 30
0.0
 11
8.557137466937856
 21
-4.536392005793
 31
0.0
 70
   160
 13
0.0
 23
0.45
 33
0.0
 14
0.0
 24
0.0
 34
0.0
 50
90.0
  0
DIMENSION
  5
3C8
  8
0
  2
*D3
 10
12.76738532090152
 20
2.0
 30
0.0
 11
12.76738532090152
 21
7.568124917839908
 31
0.0
 70
   160
 13
0.0
 23
-0.0000000000000036
 33
0.0
 14
0.2500000000000001
 24
2.0
 34
0.0
 50
90.0
  0
DIMENSION
  5
89F
  8
0
  2
*D4
 10
16.31446712711066
 20
-0.0000000000000046
 30
0.0
 11
15.22039104015414
 21
22.5
 31
0.0
 70
    32
 13
1.5
 23
45.0
 33
0.0
 14
0.0
 24
-0.0000000000000036
 34
0.0
 50
90.0
  0
LINE
  5
F04
  8
0
  6
BYBLOCK
 62
     3
 10
0.0
 20
0.2
 30
0.0
 11
0.0
 21
0.2
 31
0.0
  0
LINE
  5
F05
  8
0
  6
BYBLOCK
 62
     3
 10
0.0
 20
0.2
 30
0.0
 11
0.0
 21
0.2
 31
0.0
  0
DIMENSION
  5
10D5
  8
0
  2
*D5
 10
0.0
 20
0.25
 30
0.0
 11
-6.279390700855648
 21
-3.217847104057317
 31
0.0
 70
   164
 15
-0.2188449361357684
 25
0.1291410163548797
 35
0.0
 40
0.0
  0
LINE
  5
10E1
  8
0
  6
BYBLOCK
 62
     3
 10
0.0
 20
0.25
 30
0.0
 11
0.0
 21
0.25
 31
0.0
  0
LINE
  5
10E2
  8
0
  6
BYBLOCK
 62
     3
 10
0.0
 20
0.25
 30
0.0
 11
0.0
 21
0.25
 31
0.0
  0
LINE
  5
10EF
  8
0
  6
BYBLOCK
 62
     3
 10
0.0
 20
0.25
 30
0.0
 11
0.0
 21
0.25
 31
0.0
  0
LINE
  5
10F0
  8
0
  6
BYBLOCK
 62
     3
 10
0.0
 20
0.25
 30
0.0
 11
0.0
 21
0.25
 31
0.0
  0
LINE
  5
10FD
  8
0
  6
BYBLOCK
 62
     3
 10
0.0
 20
0.25
 30
0.0
 11
0.0
 21
0.25
 31
0.0
  0
LINE
  5
10FE
  8
0
  6
BYBLOCK
 62
     3
 10
0.0
 20
0.25
 30
0.0
 11
0.0
 21
0.25
 31
0.0
  0
LINE
  5
1156
  8
0
 10
-0.2499999999999999
 20
0.2500000000000001
 30
0.0
 11
-0.2499999999999999
 21
2.0
 31
0.0
  0
LINE
  5
1157
  8
0
 10
0.2500000000000001
 20
0.2500000000000035
 30
0.0
 11
0.2500000000000001
 21
2.0
 31
0.0
  0
ENDSEC
  0
EOF
