  0
SECTION
  2
HEADER
  9
$ACADVER
  1
AC1006
  9
$DWGCODEPAGE
  3
ansi_949
  9
$INSBASE
 10
0.0
 20
0.0
 30
0.0
  9
$EXTMIN
 10
-9.909861131151699
 20
-5.496868390065122
  9
$EXTMAX
 10
11.81446712711066
 20
44.80073221288972
  9
$LIMMIN
 10
0.0
 20
0.0
  9
$LIMMAX
 10
12.0
 20
9.0
  9
$ORTHOMODE
 70
     1
  9
$REGENMODE
 70
     1
  9
$FILLMODE
 70
     1
  9
$QTEXTMODE
 70
     0
  9
$MIRRTEXT
 70
     0
  9
$DRAGMODE
 70
     2
  9
$LTSCALE
 40
1.0
  9
$OSMODE
 70
    37
  9
$ATTMODE
 70
     1
  9
$TEXTSIZE
 40
0.2
  9
$TRACEWID
 40
0.05
  9
$TEXTSTYLE
  7
STANDARD
  9
$CLAYER
  8
0
  9
$CELTYPE
  6
BYLAYER
  9
$CECOLOR
 62
   256
  9
$DIMSCALE
 40
1.0
  9
$DIMASZ
 40
1.5
  9
$DIMEXO
 40
0.5
  9
$DIMDLI
 40
2.0
  9
$DIMRND
 40
0.0
  9
$DIMDLE
 40
0.0
  9
$DIMEXE
 40
0.5
  9
$DIMTP
 40
0.0
  9
$DIMTM
 40
0.0
  9
$DIMTXT
 40
2.0
  9
$DIMCEN
 40
0.0
  9
$DIMTSZ
 40
0.0
  9
$DIMTOL
 70
     0
  9
$DIMLIM
 70
     0
  9
$DIMTIH
 70
     0
  9
$DIMTOH
 70
     0
  9
$DIMSE1
 70
     0
  9
$DIMSE2
 70
     0
  9
$DIMTAD
 70
     1
  9
$DIMZIN
 70
     0
  9
$DIMBLK
  1

  9
$DIMASO
 70
     1
  9
$DIMSHO
 70
     1
  9
$DIMPOST
  1

  9
$DIMAPOST
  1

  9
$DIMALT
 70
     0
  9
$DIMALTD
 70
     2
  9
$DIMALTF
 40
25.4
  9
$DIMLFAC
 40
1.0
  9
$DIMTOFL
 70
     0
  9
$DIMTVP
 40
0.0
  9
$DIMTIX
 70
     0
  9
$DIMSOXD
 70
     0
  9
$DIMSAH
 70
     0
  9
$DIMBLK1
  1

  9
$DIMBLK2
  1

  9
$LUNITS
 70
     2
  9
$LUPREC
 70
     4
  9
$SKETCHINC
 40
0.1
  9
$FILLETRAD
 40
0.0
  9
$AUNITS
 70
     0
  9
$AUPREC
 70
     0
  9
$MENU
  1
.
  9
$ELEVATION
 40
0.0
  9
$THICKNESS
 40
0.0
  9
$LIMCHECK
 70
     0
  9
$CHAMFERA
 40
0.0
  9
$CHAMFERB
 40
0.0
  9
$SKPOLY
 70
     0
  9
$TDCREATE
 40
2453353.842125822
  9
$TDUPDATE
 40
2459503.46093971
  9
$TDINDWG
 40
0.0329954167
  9
$TDUSRTIMER
 40
0.0329722685
  9
$USRTIMER
 70
     1
  9
$ANGBASE
 50
0.0
  9
$ANGDIR
 70
     0
  9
$PDMODE
 70
     0
  9
$PDSIZE
 40
0.0
  9
$PLINEWID
 40
0.0
  9
$COORDS
 70
     1
  9
$SPLFRAME
 70
     0
  9
$SPLINETYPE
 70
     6
  9
$SPLINESEGS
 70
     8
  9
$ATTDIA
 70
     0
  9
$ATTREQ
 70
     1
  9
$HANDLING
 70
     1
  9
$HANDSEED
  5
EFC
  9
$SURFTAB1
 70
     6
  9
$SURFTAB2
 70
     6
  9
$SURFTYPE
 70
     6
  9
$SURFU
 70
     6
  9
$SURFV
 70
     6
  9
$UCSNAME
  2

  9
$UCSORG
 10
0.0
 20
0.0
 30
0.0
  9
$UCSXDIR
 10
1.0
 20
0.0
 30
0.0
  9
$UCSYDIR
 10
0.0
 20
1.0
 30
0.0
  9
$USERI1
 70
     0
  9
$USERI2
 70
     0
  9
$USERI3
 70
     0
  9
$USERI4
 70
     0
  9
$USERI5
 70
     0
  9
$USERR1
 40
0.0
  9
$USERR2
 40
0.0
  9
$USERR3
 40
0.0
  9
$USERR4
 40
0.0
  9
$USERR5
 40
0.0
  9
$WORLDVIEW
 70
     1
  0
ENDSEC
  0
SECTION
  2
TABLES
  0
TABLE
  2
VPORT
 70
     1
  0
VPORT
  2
*ACTIVE
 70
     0
 10
0.0
 20
0.0
 11
1.0
 21
1.0
 12
1.045069434424152
 22
19.65193191141229
 13
0.0
 23
0.0
 14
0.5
 24
0.5
 15
0.5
 25
0.5
 16
0.0
 26
0.0
 36
1.0
 17
0.0
 27
0.0
 37
0.0
 40
51.30355261501395
 41
1.701534170153417
 42
50.0
 43
0.0
 44
0.0
 50
0.0
 51
0.0
 71
    16
 72
  1000
 73
     1
 74
     3
 75
     0
 76
     0
 77
     0
 78
     0
  0
ENDTAB
  0
TABLE
  2
LTYPE
 70
     1
  0
LTYPE
  2
CONTINUOUS
 70
     0
  3
Solid line
 72
    65
 73
     0
 40
0.0
  0
ENDTAB
  0
TABLE
  2
LAYER
 70
     2
  0
LAYER
  2
0
 70
     0
 62
     7
  6
CONTINUOUS
  0
LAYER
  2
DEFPOINTS
 70
     0
 62
     7
  6
CONTINUOUS
  0
ENDTAB
  0
TABLE
  2
STYLE
 70
     2
  0
STYLE
  2
STANDARD
 70
     0
 40
0.0
 41
1.0
 50
0.0
 71
     0
 42
0.2
  3
IC-txt.shx
  4

  0
STYLE
  2
돋움
 70
     0
 40
0.0
 41
1.0
 50
0.0
 71
     0
 42
0.2
  3
Dotum.ttf
  4

  0
ENDTAB
  0
TABLE
  2
VIEW
 70
     0
  0
ENDTAB
  0
TABLE
  2
UCS
 70
     0
  0
ENDTAB
  0
ENDSEC
  0
SECTION
  2
BLOCKS
  0
BLOCK
  8
0
  2
*D1
 70
     1
 10
0.0
 20
0.0
 30
0.0
  0
POINT
  5
EB1
  8
DEFPOINTS
  6
BYBLOCK
 62
     3
 10
-2.0
 20
39.5
 30
0.0
  0
POINT
  5
EB2
  8
DEFPOINTS
  6
BYBLOCK
 62
     3
 10
2.0
 20
39.5
 30
0.0
  0
LINE
  5
EB3
  8
0
  6
BYBLOCK
 62
     3
 10
-2.0
 20
40.0
 30
0.0
 11
-2.0
 21
43.1020365607158
 31
0.0
  0
LINE
  5
EB4
  8
0
  6
BYBLOCK
 62
     3
 10
2.0
 20
40.0
 30
0.0
 11
2.0
 21
43.1020365607158
 31
0.0
  0
LINE
  5
EB5
  8
0
  6
BYBLOCK
 62
     3
 10
-2.0
 20
42.6020365607158
 30
0.0
 11
2.0
 21
42.6020365607158
 31
0.0
  0
SOLID
  5
EB6
  8
0
  6
BYBLOCK
 62
     3
 10
-2.0
 20
42.6020365607158
 30
0.0
 11
-0.5
 21
42.35203656071575
 31
0.0
 12
-0.5
 22
42.85203656071585
 32
0.0
 13
-0.5
 23
42.85203656071585
 33
0.0
  0
SOLID
  5
EB7
  8
0
  6
BYBLOCK
 62
     3
 10
2.0
 20
42.6020365607158
 30
0.0
 11
0.5
 21
42.35203656071575
 31
0.0
 12
0.5
 22
42.85203656071585
 32
0.0
 13
0.5
 23
42.85203656071585
 33
0.0
  0
INSERT
  5
EB8
  8
0
  6
BYBLOCK
 62
     3
  2
*X5
 10
0.0
 20
0.0
 30
0.0
  0
ENDBLK
  8
0
  0
BLOCK
  8
0
  2
*D2
 70
     1
 10
0.0
 20
0.0
 30
0.0
  0
POINT
  5
E85
  8
DEFPOINTS
  6
BYBLOCK
 62
     3
 10
0.0
 20
-0.0000000000000036
 30
0.0
  0
POINT
  5
E86
  8
DEFPOINTS
  6
BYBLOCK
 62
     3
 10
0.15
 20
0.5999999999999999
 30
0.0
  0
LINE
  5
E87
  8
0
  6
BYBLOCK
 62
     3
 10
0.5
 20
-0.0000000000000036
 30
0.0
 11
8.267385320901518
 21
-0.0000000000000036
 31
0.0
  0
LINE
  5
E88
  8
0
  6
BYBLOCK
 62
     3
 10
0.65
 20
0.5999999999999999
 30
0.0
 11
8.267385320901518
 21
0.5999999999999999
 31
0.0
  0
LINE
  5
E89
  8
0
  6
BYBLOCK
 62
     3
 10
7.767385320901518
 20
-1.500000000000004
 30
0.0
 11
7.767385320901518
 21
-3.000000000000004
 31
0.0
  0
SOLID
  5
E8A
  8
0
  6
BYBLOCK
 62
     3
 10
7.767385320901518
 20
-0.0000000000000036
 30
0.0
 11
8.017385320901568
 21
-1.500000000000004
 31
0.0
 12
7.517385320901468
 22
-1.500000000000004
 32
0.0
 13
7.517385320901468
 23
-1.500000000000004
 33
0.0
  0
LINE
  5
E8B
  8
0
  6
BYBLOCK
 62
     3
 10
7.767385320901518
 20
2.1
 30
0.0
 11
7.767385320901518
 21
8.971455328212325
 31
0.0
  0
SOLID
  5
E8C
  8
0
  6
BYBLOCK
 62
     3
 10
7.767385320901518
 20
0.5999999999999999
 30
0.0
 11
8.017385320901568
 21
2.1
 31
0.0
 12
7.517385320901468
 22
2.1
 32
0.0
 13
7.517385320901468
 23
2.1
 33
0.0
  0
TEXT
  5
E8D
  8
0
  6
CONTINUOUS
 62
     3
 10
7.671950538292823
 20
4.778129758854147
 30
0.0
 40
2.0
  1
0.6
 50
90.0
  7
돋움
  0
ENDBLK
  8
0
  0
BLOCK
  8
0
  2
*D3
 70
     1
 10
0.0
 20
0.0
 30
0.0
  0
POINT
  5
E65
  8
DEFPOINTS
  6
BYBLOCK
 62
     3
 10
1.5
 20
40.0
 30
0.0
  0
POINT
  5
E66
  8
DEFPOINTS
  6
BYBLOCK
 62
     3
 10
0.0
 20
-0.0000000000000036
 30
0.0
  0
LINE
  5
E67
  8
0
  6
BYBLOCK
 62
     3
 10
2.0
 20
40.0
 30
0.0
 11
11.81446712711066
 21
40.0
 31
0.0
  0
LINE
  5
E68
  8
0
  6
BYBLOCK
 62
     3
 10
0.5
 20
0.0
 30
0.0
 11
11.81446712711066
 21
0.0
 31
0.0
  0
LINE
  5
E69
  8
0
  6
BYBLOCK
 62
     3
 10
11.31446712711066
 20
40.0
 30
0.0
 11
11.31446712711066
 21
0.0
 31
0.0
  0
SOLID
  5
E6A
  8
0
  6
BYBLOCK
 62
     3
 10
11.31446712711066
 20
40.0
 30
0.0
 11
11.06446712711061
 21
38.5
 31
0.0
 12
11.56446712711071
 22
38.5
 32
0.0
 13
11.56446712711071
 23
38.5
 33
0.0
  0
SOLID
  5
E6B
  8
0
  6
BYBLOCK
 62
     3
 10
11.31446712711066
 20
0.0
 30
0.0
 11
11.06446712711061
 21
1.5
 31
0.0
 12
11.56446712711071
 22
1.5
 32
0.0
 13
11.56446712711071
 23
1.5
 33
0.0
  0
TEXT
  5
E6C
  8
0
  6
CONTINUOUS
 62
     3
 10
11.22039104015413
 20
18.38095238095238
 30
0.0
 40
2.0
  1
40
 50
90.0
  7
돋움
  0
ENDBLK
  8
0
  0
BLOCK
  8
0
  2
*D4
 70
     1
 10
0.0
 20
0.0
 30
0.0
  0
LINE
  5
E96
  8
0
  6
BYBLOCK
 62
     3
 10
-1.412504757012928
 20
-0.7028366264507229
 30
0.0
 11
-9.352586668783026
 21
-5.49686839006513
 31
0.0
  0
LINE
  5
E97
  8
0
  6
BYBLOCK
 62
     3
 10
-6.024593329722034
 20
-3.487505520280983
 30
0.0
 11
-6.024593329722034
 21
-3.487505520280983
 31
0.0
  0
SOLID
  5
E98
  8
0
  6
BYBLOCK
 62
     3
 10
-0.1284095233648114
 20
0.0724693975953888
 30
0.0
 11
-1.541722427687305
 21
-0.4888207541759942
 31
0.0
 12
-1.28328708633855
 22
-0.9168524987254517
 32
0.0
 13
-1.28328708633855
 23
-0.9168524987254517
 33
0.0
  0
TEXT
  5
E99
  8
0
  6
CONTINUOUS
 62
     3
 10
-9.373070863402813
 20
-5.404103868094955
 30
0.0
 40
2.0
  1
R0.15
 50
31.12257619031309
  7
돋움
  0
POINT
  5
E9A
  8
DEFPOINTS
  6
BYBLOCK
 62
     3
 10
0.0
 20
0.15
 30
0.0
  0
POINT
  5
E9B
  8
DEFPOINTS
  6
BYBLOCK
 62
     3
 10
-0.1284095233648114
 20
0.0724693975953888
 30
0.0
  0
ENDBLK
  8
0
  0
BLOCK
  8
0
  2
*X5
 70
     1
 10
0.0
 20
0.0
 30
0.0
  0
TEXT
  5
EF8
  8
0
  6
CONTINUOUS
 62
     3
 10
-1.949728545590945
 20
42.74638438680276
 30
0.0
 40
2.0
  1
\U+2205
  7
돋움
  0
TEXT
  5
EF9
  8
0
  6
CONTINUOUS
 62
     3
 10
-0.1402047360671352
 20
42.74638438680276
 30
0.0
 40
2.0
  1
4
  7
돋움
  0
ENDBLK
  8
0
  0
ENDSEC
  0
SECTION
  2
ENTITIES
  0
LINE
  5
394
  8
0
 10
-1.5
 20
40.0
 30
0.0
 11
1.5
 21
40.0
 31
0.0
  0
ARC
  5
397
  8
0
 10
0.0
 20
0.15
 30
0.0
 40
0.15
 50
180.0
 51
0.0000000000008142
  0
LINE
  5
398
  8
0
 10
-2.0
 20
7.504293994002425
 30
0.0
 11
-2.0
 21
39.5
 31
0.0
  0
LINE
  5
399
  8
0
 10
2.0
 20
7.504293994002411
 30
0.0
 11
2.0
 21
39.5
 31
0.0
  0
LINE
  5
39A
  8
0
 10
0.15
 20
0.5999999999999999
 30
0.0
 11
2.0
 21
7.504293994002411
 31
0.0
  0
LINE
  5
39B
  8
0
 10
-0.15
 20
0.5999999999999999
 30
0.0
 11
-2.0
 21
7.504293994002425
 31
0.0
  0
LINE
  5
39C
  8
0
 10
-2.0
 20
39.5
 30
0.0
 11
2.0
 21
39.5
 31
0.0
  0
LINE
  5
39D
  8
0
 10
-2.0
 20
39.5
 30
0.0
 11
-1.5
 21
40.0
 31
0.0
  0
LINE
  5
39E
  8
0
 10
2.0
 20
39.5
 30
0.0
 11
1.5
 21
40.0
 31
0.0
  0
DIMENSION
  5
39F
  8
0
  2
*D1
 10
2.0
 20
42.6020365607158
 30
0.0
 11
-0.3306809265433256
 21
42.6020365607158
 31
0.0
 70
   160
  1
%%c<>
 13
-2.0
 23
39.5
 33
0.0
 14
2.0
 24
39.5
 34
0.0
  0
DIMENSION
  5
3C8
  8
0
  2
*D2
 10
7.767385320901518
 20
0.5999999999999999
 30
0.0
 11
7.767385320901518
 21
6.825748806473195
 31
0.0
 70
   160
 13
0.0
 23
-0.0000000000000036
 33
0.0
 14
0.15
 24
0.5999999999999999
 34
0.0
 50
90.0
  0
DIMENSION
  5
89F
  8
0
  2
*D3
 10
11.31446712711066
 20
-0.0000000000000042
 30
0.0
 11
10.22039104015414
 21
20.0
 31
0.0
 70
    32
 13
1.5
 23
40.0
 33
0.0
 14
0.0
 24
-0.0000000000000036
 34
0.0
 50
90.0
  0
DIMENSION
  5
D1D
  8
0
  2
*D4
 10
0.0
 20
0.15
 30
0.0
 11
-6.024593329722034
 21
-3.487505520280983
 31
0.0
 70
   164
 15
-0.1284095233648114
 25
0.0724693975953888
 35
0.0
 40
0.0
  0
LINE
  5
D9A
  8
0
 10
0.15
 20
0.1500000000000021
 30
0.0
 11
0.15
 21
0.5999999999999999
 31
0.0
  0
LINE
  5
D9B
  8
0
 10
-0.15
 20
0.15
 30
0.0
 11
-0.15
 21
0.5999999999999999
 31
0.0
  0
ENDSEC
  0
EOF
