  0
SECTION
  2
HEADER
  9
$ACADVER
  1
AC1006
  9
$DWGCODEPAGE
  3
ansi_949
  9
$INSBASE
 10
0.0
 20
0.0
 30
0.0
  9
$EXTMIN
 10
-9.410450291426198
 20
-4.342255693721424
  9
$EXTMAX
 10
13.81446712711066
 20
49.80073221288972
  9
$LIMMIN
 10
0.0
 20
0.0
  9
$LIMMAX
 10
12.0
 20
9.0
  9
$ORTHOMODE
 70
     1
  9
$REGENMODE
 70
     1
  9
$FILLMODE
 70
     1
  9
$QTEXTMODE
 70
     0
  9
$MIRRTEXT
 70
     0
  9
$DRAGMODE
 70
     2
  9
$LTSCALE
 40
1.0
  9
$OSMODE
 70
    37
  9
$ATTMODE
 70
     1
  9
$TEXTSIZE
 40
0.2
  9
$TRACEWID
 40
0.05
  9
$TEXTSTYLE
  7
STANDARD
  9
$CLAYER
  8
0
  9
$CELTYPE
  6
BYLAYER
  9
$CECOLOR
 62
   256
  9
$DIMSCALE
 40
1.0
  9
$DIMASZ
 40
1.5
  9
$DIMEXO
 40
0.5
  9
$DIMDLI
 40
2.0
  9
$DIMRND
 40
0.0
  9
$DIMDLE
 40
0.0
  9
$DIMEXE
 40
0.5
  9
$DIMTP
 40
0.0
  9
$DIMTM
 40
0.0
  9
$DIMTXT
 40
2.0
  9
$DIMCEN
 40
0.0
  9
$DIMTSZ
 40
0.0
  9
$DIMTOL
 70
     0
  9
$DIMLIM
 70
     0
  9
$DIMTIH
 70
     0
  9
$DIMTOH
 70
     0
  9
$DIMSE1
 70
     0
  9
$DIMSE2
 70
     0
  9
$DIMTAD
 70
     1
  9
$DIMZIN
 70
     0
  9
$DIMBLK
  1

  9
$DIMASO
 70
     1
  9
$DIMSHO
 70
     1
  9
$DIMPOST
  1

  9
$DIMAPOST
  1

  9
$DIMALT
 70
     0
  9
$DIMALTD
 70
     2
  9
$DIMALTF
 40
25.4
  9
$DIMLFAC
 40
1.0
  9
$DIMTOFL
 70
     0
  9
$DIMTVP
 40
0.0
  9
$DIMTIX
 70
     0
  9
$DIMSOXD
 70
     0
  9
$DIMSAH
 70
     0
  9
$DIMBLK1
  1

  9
$DIMBLK2
  1

  9
$LUNITS
 70
     2
  9
$LUPREC
 70
     4
  9
$SKETCHINC
 40
0.1
  9
$FILLETRAD
 40
0.0
  9
$AUNITS
 70
     0
  9
$AUPREC
 70
     0
  9
$MENU
  1
.
  9
$ELEVATION
 40
0.0
  9
$THICKNESS
 40
0.0
  9
$LIMCHECK
 70
     0
  9
$CHAMFERA
 40
0.0
  9
$CHAMFERB
 40
0.0
  9
$SKPOLY
 70
     0
  9
$TDCREATE
 40
2453353.842125822
  9
$TDUPDATE
 40
2459503.461186192
  9
$TDINDWG
 40
0.0599167477
  9
$TDUSRTIMER
 40
0.0598820139
  9
$USRTIMER
 70
     1
  9
$ANGBASE
 50
0.0
  9
$ANGDIR
 70
     0
  9
$PDMODE
 70
     0
  9
$PDSIZE
 40
0.0
  9
$PLINEWID
 40
0.0
  9
$COORDS
 70
     1
  9
$SPLFRAME
 70
     0
  9
$SPLINETYPE
 70
     6
  9
$SPLINESEGS
 70
     8
  9
$ATTDIA
 70
     0
  9
$ATTREQ
 70
     1
  9
$HANDLING
 70
     1
  9
$HANDSEED
  5
1584
  9
$SURFTAB1
 70
     6
  9
$SURFTAB2
 70
     6
  9
$SURFTYPE
 70
     6
  9
$SURFU
 70
     6
  9
$SURFV
 70
     6
  9
$UCSNAME
  2

  9
$UCSORG
 10
0.0
 20
0.0
 30
0.0
  9
$UCSXDIR
 10
1.0
 20
0.0
 30
0.0
  9
$UCSYDIR
 10
0.0
 20
1.0
 30
0.0
  9
$USERI1
 70
     0
  9
$USERI2
 70
     0
  9
$USERI3
 70
     0
  9
$USERI4
 70
     0
  9
$USERI5
 70
     0
  9
$USERR1
 40
0.0
  9
$USERR2
 40
0.0
  9
$USERR3
 40
0.0
  9
$USERR4
 40
0.0
  9
$USERR5
 40
0.0
  9
$WORLDVIEW
 70
     1
  0
ENDSEC
  0
SECTION
  2
TABLES
  0
TABLE
  2
VPORT
 70
     1
  0
VPORT
  2
*ACTIVE
 70
     0
 10
0.0
 20
0.0
 11
1.0
 21
1.0
 12
2.202008417842229
 22
22.72923825958415
 13
0.0
 23
0.0
 14
0.5
 24
0.5
 15
0.5
 25
0.5
 16
0.0
 26
0.0
 36
1.0
 17
0.0
 27
0.0
 37
0.0
 40
55.22584766474337
 41
1.701534170153416
 42
50.0
 43
0.0
 44
0.0
 50
0.0
 51
0.0
 71
    16
 72
  1000
 73
     1
 74
     3
 75
     0
 76
     0
 77
     0
 78
     0
  0
ENDTAB
  0
TABLE
  2
LTYPE
 70
     1
  0
LTYPE
  2
CONTINUOUS
 70
     0
  3
Solid line
 72
    65
 73
     0
 40
0.0
  0
ENDTAB
  0
TABLE
  2
LAYER
 70
     2
  0
LAYER
  2
0
 70
     0
 62
     7
  6
CONTINUOUS
  0
LAYER
  2
DEFPOINTS
 70
     0
 62
     7
  6
CONTINUOUS
  0
ENDTAB
  0
TABLE
  2
STYLE
 70
     2
  0
STYLE
  2
STANDARD
 70
     0
 40
0.0
 41
1.0
 50
0.0
 71
     0
 42
0.2
  3
IC-txt.shx
  4

  0
STYLE
  2
돋움
 70
     0
 40
0.0
 41
1.0
 50
0.0
 71
     0
 42
0.2
  3
Dotum.ttf
  4

  0
ENDTAB
  0
TABLE
  2
VIEW
 70
     0
  0
ENDTAB
  0
TABLE
  2
UCS
 70
     0
  0
ENDTAB
  0
ENDSEC
  0
SECTION
  2
BLOCKS
  0
BLOCK
  8
0
  2
*D1
 70
     1
 10
0.0
 20
0.0
 30
0.0
  0
POINT
  5
1539
  8
DEFPOINTS
  6
BYBLOCK
 62
     3
 10
-2.0
 20
44.5
 30
0.0
  0
POINT
  5
153A
  8
DEFPOINTS
  6
BYBLOCK
 62
     3
 10
2.0
 20
44.5
 30
0.0
  0
LINE
  5
153B
  8
0
  6
BYBLOCK
 62
     3
 10
-2.0
 20
45.0
 30
0.0
 11
-2.0
 21
48.1020365607158
 31
0.0
  0
LINE
  5
153C
  8
0
  6
BYBLOCK
 62
     3
 10
2.0
 20
45.0
 30
0.0
 11
2.0
 21
48.1020365607158
 31
0.0
  0
LINE
  5
153D
  8
0
  6
BYBLOCK
 62
     3
 10
-2.0
 20
47.6020365607158
 30
0.0
 11
2.0
 21
47.6020365607158
 31
0.0
  0
SOLID
  5
153E
  8
0
  6
BYBLOCK
 62
     3
 10
-2.0
 20
47.6020365607158
 30
0.0
 11
-0.5
 21
47.35203656071575
 31
0.0
 12
-0.5
 22
47.85203656071585
 32
0.0
 13
-0.5
 23
47.85203656071585
 33
0.0
  0
SOLID
  5
153F
  8
0
  6
BYBLOCK
 62
     3
 10
2.0
 20
47.6020365607158
 30
0.0
 11
0.5
 21
47.35203656071575
 31
0.0
 12
0.5
 22
47.85203656071585
 32
0.0
 13
0.5
 23
47.85203656071585
 33
0.0
  0
INSERT
  5
1540
  8
0
  6
BYBLOCK
 62
     3
  2
*X5
 10
0.0
 20
0.0
 30
0.0
  0
ENDBLK
  8
0
  0
BLOCK
  8
0
  2
*D2
 70
     1
 10
0.0
 20
0.0
 30
0.0
  0
POINT
  5
151B
  8
DEFPOINTS
  6
BYBLOCK
 62
     3
 10
0.0
 20
-0.0000000000000036
 30
0.0
  0
POINT
  5
151C
  8
DEFPOINTS
  6
BYBLOCK
 62
     3
 10
0.3
 20
1.199999999999999
 30
0.0
  0
LINE
  5
151D
  8
0
  6
BYBLOCK
 62
     3
 10
0.5
 20
-0.0000000000000036
 30
0.0
 11
10.26738532090152
 21
-0.0000000000000036
 31
0.0
  0
LINE
  5
151E
  8
0
  6
BYBLOCK
 62
     3
 10
0.8
 20
1.199999999999999
 30
0.0
 11
10.26738532090152
 21
1.199999999999999
 31
0.0
  0
LINE
  5
151F
  8
0
  6
BYBLOCK
 62
     3
 10
9.767385320901518
 20
-1.500000000000004
 30
0.0
 11
9.767385320901518
 21
-3.000000000000004
 31
0.0
  0
SOLID
  5
1520
  8
0
  6
BYBLOCK
 62
     3
 10
9.767385320901518
 20
-0.0000000000000036
 30
0.0
 11
10.01738532090157
 21
-1.500000000000004
 31
0.0
 12
9.517385320901468
 22
-1.500000000000004
 32
0.0
 13
9.517385320901468
 23
-1.500000000000004
 33
0.0
  0
LINE
  5
1521
  8
0
  6
BYBLOCK
 62
     3
 10
9.767385320901518
 20
2.699999999999999
 30
0.0
 11
9.767385320901518
 21
11.61072325118156
 31
0.0
  0
SOLID
  5
1522
  8
0
  6
BYBLOCK
 62
     3
 10
9.767385320901518
 20
1.199999999999999
 30
0.0
 11
10.01738532090157
 21
2.699999999999999
 31
0.0
 12
9.517385320901468
 22
2.699999999999999
 32
0.0
 13
9.517385320901468
 23
2.699999999999999
 33
0.0
  0
TEXT
  5
1523
  8
0
  6
CONTINUOUS
 62
     3
 10
9.674667929597172
 20
7.567048302941401
 30
0.0
 40
2.0
  1
1.2
 50
90.0
  7
돋움
  0
ENDBLK
  8
0
  0
BLOCK
  8
0
  2
*D3
 70
     1
 10
0.0
 20
0.0
 30
0.0
  0
POINT
  5
14FB
  8
DEFPOINTS
  6
BYBLOCK
 62
     3
 10
1.5
 20
45.0
 30
0.0
  0
POINT
  5
14FC
  8
DEFPOINTS
  6
BYBLOCK
 62
     3
 10
0.0
 20
-0.0000000000000036
 30
0.0
  0
LINE
  5
14FD
  8
0
  6
BYBLOCK
 62
     3
 10
2.0
 20
45.0
 30
0.0
 11
13.81446712711066
 21
45.0
 31
0.0
  0
LINE
  5
14FE
  8
0
  6
BYBLOCK
 62
     3
 10
0.5
 20
0.0
 30
0.0
 11
13.81446712711066
 21
0.0
 31
0.0
  0
LINE
  5
14FF
  8
0
  6
BYBLOCK
 62
     3
 10
13.31446712711066
 20
45.0
 30
0.0
 11
13.31446712711066
 21
0.0
 31
0.0
  0
SOLID
  5
1500
  8
0
  6
BYBLOCK
 62
     3
 10
13.31446712711066
 20
45.0
 30
0.0
 11
13.06446712711061
 21
43.5
 31
0.0
 12
13.56446712711071
 22
43.5
 32
0.0
 13
13.56446712711071
 23
43.5
 33
0.0
  0
SOLID
  5
1501
  8
0
  6
BYBLOCK
 62
     3
 10
13.31446712711066
 20
0.0
 30
0.0
 11
13.06446712711061
 21
1.5
 31
0.0
 12
13.56446712711071
 22
1.5
 32
0.0
 13
13.56446712711071
 23
1.5
 33
0.0
  0
TEXT
  5
1502
  8
0
  6
CONTINUOUS
 62
     3
 10
13.22039104015413
 20
20.88095238095238
 30
0.0
 40
2.0
  1
45
 50
90.0
  7
돋움
  0
ENDBLK
  8
0
  0
BLOCK
  8
0
  2
*D4
 70
     1
 10
0.0
 20
0.0
 30
0.0
  0
LINE
  5
14BA
  8
0
  6
BYBLOCK
 62
     3
 10
-1.599537770662678
 20
-0.5255173651858999
 30
0.0
 11
-8.994920805220294
 21
-4.342255693721424
 31
0.0
  0
LINE
  5
14BB
  8
0
  6
BYBLOCK
 62
     3
 10
-6.270780482394237
 20
-2.936333818701021
 30
0.0
 11
-6.270780482394237
 21
-2.936333818701021
 31
0.0
  0
SOLID
  5
14BC
  8
0
  6
BYBLOCK
 62
     3
 10
-0.2665896284437795
 20
0.1624137724690166
 30
0.0
 11
-1.714192960271854
 21
-0.3033593414827058
 31
0.0
 12
-1.484882581053502
 22
-0.747675388889094
 32
0.0
 13
-1.484882581053502
 23
-0.747675388889094
 33
0.0
  0
TEXT
  5
14BD
  8
0
  6
CONTINUOUS
 62
     3
 10
-9.06258426316872
 20
-4.275897372947874
 30
0.0
 40
2.0
  1
R0.3
 50
27.2981433195957
  7
돋움
  0
POINT
  5
14BE
  8
DEFPOINTS
  6
BYBLOCK
 62
     3
 10
0.0000000000000001
 20
0.3
 30
0.0
  0
POINT
  5
14BF
  8
DEFPOINTS
  6
BYBLOCK
 62
     3
 10
-0.2665896284437795
 20
0.1624137724690166
 30
0.0
  0
ENDBLK
  8
0
  0
BLOCK
  8
0
  2
*X5
 70
     1
 10
0.0
 20
0.0
 30
0.0
  0
TEXT
  5
1580
  8
0
  6
CONTINUOUS
 62
     3
 10
-1.949728545590945
 20
47.74638438680276
 30
0.0
 40
2.0
  1
\U+2205
  7
돋움
  0
TEXT
  5
1581
  8
0
  6
CONTINUOUS
 62
     3
 10
-0.1402047360671352
 20
47.74638438680276
 30
0.0
 40
2.0
  1
4
  7
돋움
  0
ENDBLK
  8
0
  0
ENDSEC
  0
SECTION
  2
ENTITIES
  0
LINE
  5
394
  8
0
 10
-1.5
 20
45.0
 30
0.0
 11
1.5
 21
45.0
 31
0.0
  0
ARC
  5
397
  8
0
 10
0.0000000000000001
 20
0.3
 30
0.0
 40
0.3
 50
180.0
 51
0.0000000000008142
  0
LINE
  5
398
  8
0
 10
-2.0
 20
7.544486372867096
 30
0.0
 11
-2.0
 21
44.5
 31
0.0
  0
LINE
  5
399
  8
0
 10
2.0
 20
7.544486372867082
 30
0.0
 11
2.0
 21
44.5
 31
0.0
  0
LINE
  5
39A
  8
0
 10
0.3
 20
1.199999999999999
 30
0.0
 11
2.0
 21
7.544486372867082
 31
0.0
  0
LINE
  5
39B
  8
0
 10
-0.2999999999999998
 20
1.199999999999999
 30
0.0
 11
-2.0
 21
7.544486372867096
 31
0.0
  0
LINE
  5
39C
  8
0
 10
-2.0
 20
44.5
 30
0.0
 11
2.0
 21
44.5
 31
0.0
  0
LINE
  5
39D
  8
0
 10
-2.0
 20
44.5
 30
0.0
 11
-1.5
 21
45.0
 31
0.0
  0
LINE
  5
39E
  8
0
 10
2.0
 20
44.5
 30
0.0
 11
1.5
 21
45.0
 31
0.0
  0
DIMENSION
  5
39F
  8
0
  2
*D1
 10
2.0
 20
47.6020365607158
 30
0.0
 11
-0.3306809265433256
 21
47.6020365607158
 31
0.0
 70
   160
  1
%%c<>
 13
-2.0
 23
44.5
 33
0.0
 14
2.0
 24
44.5
 34
0.0
  0
DIMENSION
  5
3C8
  8
0
  2
*D2
 10
9.767385320901518
 20
1.199999999999999
 30
0.0
 11
9.767385320901518
 21
9.471810207703305
 31
0.0
 70
   160
 13
0.0
 23
-0.0000000000000036
 33
0.0
 14
0.3
 24
1.199999999999999
 34
0.0
 50
90.0
  0
DIMENSION
  5
89F
  8
0
  2
*D3
 10
13.31446712711066
 20
-0.0000000000000044
 30
0.0
 11
12.22039104015414
 21
22.5
 31
0.0
 70
    32
 13
1.5
 23
45.0
 33
0.0
 14
0.0
 24
-0.0000000000000036
 34
0.0
 50
90.0
  0
LINE
  5
13CE
  8
0
 10
0.3
 20
0.3000000000000042
 30
0.0
 11
0.3
 21
1.199999999999999
 31
0.0
  0
LINE
  5
13CF
  8
0
 10
-0.2999999999999999
 20
0.3
 30
0.0
 11
-0.2999999999999998
 21
1.199999999999999
 31
0.0
  0
DIMENSION
  5
14A6
  8
0
  2
*D4
 10
0.0000000000000001
 20
0.3
 30
0.0
 11
-6.270780482394237
 21
-2.936333818701021
 31
0.0
 70
   164
 15
-0.2665896284437795
 25
0.1624137724690166
 35
0.0
 40
0.0
  0
ENDSEC
  0
EOF
