  0
SECTION
  2
HEADER
  9
$ACADVER
  1
AC1006
  9
$DWGCODEPAGE
  3
ansi_949
  9
$INSBASE
 10
0.0
 20
0.0
 30
0.0
  9
$EXTMIN
 10
-8.244956100183893
 20
-3.398596262226112
  9
$EXTMAX
 10
14.48344690284555
 20
54.80073221288972
  9
$LIMMIN
 10
0.0
 20
0.0
  9
$LIMMAX
 10
12.0
 20
9.0
  9
$ORTHOMODE
 70
     1
  9
$REGENMODE
 70
     1
  9
$FILLMODE
 70
     1
  9
$QTEXTMODE
 70
     0
  9
$MIRRTEXT
 70
     0
  9
$DRAGMODE
 70
     2
  9
$LTSCALE
 40
1.0
  9
$OSMODE
 70
    37
  9
$ATTMODE
 70
     1
  9
$TEXTSIZE
 40
0.2
  9
$TRACEWID
 40
0.05
  9
$TEXTSTYLE
  7
STANDARD
  9
$CLAYER
  8
0
  9
$CELTYPE
  6
BYLAYER
  9
$CECOLOR
 62
   256
  9
$DIMSCALE
 40
1.0
  9
$DIMASZ
 40
1.5
  9
$DIMEXO
 40
0.5
  9
$DIMDLI
 40
2.0
  9
$DIMRND
 40
0.0
  9
$DIMDLE
 40
0.0
  9
$DIMEXE
 40
0.5
  9
$DIMTP
 40
0.0
  9
$DIMTM
 40
0.0
  9
$DIMTXT
 40
2.0
  9
$DIMCEN
 40
0.0
  9
$DIMTSZ
 40
0.0
  9
$DIMTOL
 70
     0
  9
$DIMLIM
 70
     0
  9
$DIMTIH
 70
     0
  9
$DIMTOH
 70
     0
  9
$DIMSE1
 70
     0
  9
$DIMSE2
 70
     0
  9
$DIMTAD
 70
     1
  9
$DIMZIN
 70
     0
  9
$DIMBLK
  1

  9
$DIMASO
 70
     1
  9
$DIMSHO
 70
     1
  9
$DIMPOST
  1

  9
$DIMAPOST
  1

  9
$DIMALT
 70
     0
  9
$DIMALTD
 70
     2
  9
$DIMALTF
 40
25.4
  9
$DIMLFAC
 40
1.0
  9
$DIMTOFL
 70
     0
  9
$DIMTVP
 40
0.0
  9
$DIMTIX
 70
     0
  9
$DIMSOXD
 70
     0
  9
$DIMSAH
 70
     0
  9
$DIMBLK1
  1

  9
$DIMBLK2
  1

  9
$LUNITS
 70
     2
  9
$LUPREC
 70
     4
  9
$SKETCHINC
 40
0.1
  9
$FILLETRAD
 40
0.0
  9
$AUNITS
 70
     0
  9
$AUPREC
 70
     0
  9
$MENU
  1
.
  9
$ELEVATION
 40
0.0
  9
$THICKNESS
 40
0.0
  9
$LIMCHECK
 70
     0
  9
$CHAMFERA
 40
0.0
  9
$CHAMFERB
 40
0.0
  9
$SKPOLY
 70
     0
  9
$TDCREATE
 40
2453353.842125822
  9
$TDUPDATE
 40
2459503.461833507
  9
$TDINDWG
 40
0.0702291667
  9
$TDUSRTIMER
 40
0.0702060532
  9
$USRTIMER
 70
     1
  9
$ANGBASE
 50
0.0
  9
$ANGDIR
 70
     0
  9
$PDMODE
 70
     0
  9
$PDSIZE
 40
0.0
  9
$PLINEWID
 40
0.0
  9
$COORDS
 70
     1
  9
$SPLFRAME
 70
     0
  9
$SPLINETYPE
 70
     6
  9
$SPLINESEGS
 70
     8
  9
$ATTDIA
 70
     0
  9
$ATTREQ
 70
     1
  9
$HANDLING
 70
     1
  9
$HANDSEED
  5
1AD7
  9
$SURFTAB1
 70
     6
  9
$SURFTAB2
 70
     6
  9
$SURFTYPE
 70
     6
  9
$SURFU
 70
     6
  9
$SURFV
 70
     6
  9
$UCSNAME
  2

  9
$UCSORG
 10
0.0
 20
0.0
 30
0.0
  9
$UCSXDIR
 10
1.0
 20
0.0
 30
0.0
  9
$UCSYDIR
 10
0.0
 20
1.0
 30
0.0
  9
$USERI1
 70
     0
  9
$USERI2
 70
     0
  9
$USERI3
 70
     0
  9
$USERI4
 70
     0
  9
$USERI5
 70
     0
  9
$USERR1
 40
0.0
  9
$USERR2
 40
0.0
  9
$USERR3
 40
0.0
  9
$USERR4
 40
0.0
  9
$USERR5
 40
0.0
  9
$WORLDVIEW
 70
     1
  0
ENDSEC
  0
SECTION
  2
TABLES
  0
TABLE
  2
VPORT
 70
     1
  0
VPORT
  2
*ACTIVE
 70
     0
 10
0.0
 20
0.0
 11
1.0
 21
1.0
 12
3.119245401330827
 22
25.7010679753318
 13
0.0
 23
0.0
 14
0.5
 24
0.5
 15
0.5
 25
0.5
 16
0.0
 26
0.0
 36
1.0
 17
0.0
 27
0.0
 37
0.0
 40
59.36331504461815
 41
1.701534170153417
 42
50.0
 43
0.0
 44
0.0
 50
0.0
 51
0.0
 71
    16
 72
  1000
 73
     1
 74
     3
 75
     0
 76
     0
 77
     0
 78
     0
  0
ENDTAB
  0
TABLE
  2
LTYPE
 70
     1
  0
LTYPE
  2
CONTINUOUS
 70
     0
  3
Solid line
 72
    65
 73
     0
 40
0.0
  0
ENDTAB
  0
TABLE
  2
LAYER
 70
     2
  0
LAYER
  2
0
 70
     0
 62
     7
  6
CONTINUOUS
  0
LAYER
  2
DEFPOINTS
 70
     0
 62
     7
  6
CONTINUOUS
  0
ENDTAB
  0
TABLE
  2
STYLE
 70
     2
  0
STYLE
  2
STANDARD
 70
     0
 40
0.0
 41
1.0
 50
0.0
 71
     0
 42
0.2
  3
IC-txt.shx
  4

  0
STYLE
  2
돋움
 70
     0
 40
0.0
 41
1.0
 50
0.0
 71
     0
 42
0.2
  3
Dotum.ttf
  4

  0
ENDTAB
  0
TABLE
  2
VIEW
 70
     0
  0
ENDTAB
  0
TABLE
  2
UCS
 70
     0
  0
ENDTAB
  0
ENDSEC
  0
SECTION
  2
BLOCKS
  0
BLOCK
  8
0
  2
*D1
 70
     1
 10
0.0
 20
0.0
 30
0.0
  0
POINT
  5
1A44
  8
DEFPOINTS
  6
BYBLOCK
 62
     3
 10
-3.0
 20
49.5
 30
0.0
  0
POINT
  5
1A45
  8
DEFPOINTS
  6
BYBLOCK
 62
     3
 10
3.0
 20
49.5
 30
0.0
  0
LINE
  5
1A46
  8
0
  6
BYBLOCK
 62
     3
 10
-3.0
 20
50.0
 30
0.0
 11
-3.0
 21
53.1020365607158
 31
0.0
  0
LINE
  5
1A47
  8
0
  6
BYBLOCK
 62
     3
 10
3.0
 20
50.0
 30
0.0
 11
3.0
 21
53.1020365607158
 31
0.0
  0
LINE
  5
1A48
  8
0
  6
BYBLOCK
 62
     3
 10
-3.0
 20
52.6020365607158
 30
0.0
 11
3.0
 21
52.6020365607158
 31
0.0
  0
SOLID
  5
1A49
  8
0
  6
BYBLOCK
 62
     3
 10
-3.0
 20
52.6020365607158
 30
0.0
 11
-1.5
 21
52.35203656071575
 31
0.0
 12
-1.5
 22
52.85203656071585
 32
0.0
 13
-1.5
 23
52.85203656071585
 33
0.0
  0
SOLID
  5
1A4A
  8
0
  6
BYBLOCK
 62
     3
 10
3.0
 20
52.6020365607158
 30
0.0
 11
1.5
 21
52.35203656071575
 31
0.0
 12
1.5
 22
52.85203656071585
 32
0.0
 13
1.5
 23
52.85203656071585
 33
0.0
  0
INSERT
  5
1A4B
  8
0
  6
BYBLOCK
 62
     3
  2
*X5
 10
0.0
 20
0.0
 30
0.0
  0
ENDBLK
  8
0
  0
BLOCK
  8
0
  2
*D2
 70
     1
 10
0.0
 20
0.0
 30
0.0
  0
POINT
  5
1A89
  8
DEFPOINTS
  6
BYBLOCK
 62
     3
 10
2.5
 20
50.0
 30
0.0
  0
POINT
  5
1A8A
  8
DEFPOINTS
  6
BYBLOCK
 62
     3
 10
0.0
 20
-0.0000000000000036
 30
0.0
  0
LINE
  5
1A8B
  8
0
  6
BYBLOCK
 62
     3
 10
3.0
 20
50.0
 30
0.0
 11
14.48344690284555
 21
50.0
 31
0.0
  0
LINE
  5
1A8C
  8
0
  6
BYBLOCK
 62
     3
 10
0.5
 20
0.0
 30
0.0
 11
14.48344690284555
 21
0.0
 31
0.0
  0
LINE
  5
1A8D
  8
0
  6
BYBLOCK
 62
     3
 10
13.98344690284555
 20
50.0
 30
0.0
 11
13.98344690284555
 21
0.0
 31
0.0
  0
SOLID
  5
1A8E
  8
0
  6
BYBLOCK
 62
     3
 10
13.98344690284555
 20
50.0
 30
0.0
 11
13.7334469028455
 21
48.5
 31
0.0
 12
14.2334469028456
 22
48.5
 32
0.0
 13
14.2334469028456
 23
48.5
 33
0.0
  0
SOLID
  5
1A8F
  8
0
  6
BYBLOCK
 62
     3
 10
13.98344690284555
 20
0.0
 30
0.0
 11
13.7334469028455
 21
1.5
 31
0.0
 12
14.2334469028456
 22
1.5
 32
0.0
 13
14.2334469028456
 23
1.5
 33
0.0
  0
TEXT
  5
1A90
  8
0
  6
CONTINUOUS
 62
     3
 10
13.88937081588902
 20
23.38095238095238
 30
0.0
 40
2.0
  1
50
 50
90.0
  7
돋움
  0
ENDBLK
  8
0
  0
BLOCK
  8
0
  2
*D3
 70
     1
 10
0.0
 20
0.0
 30
0.0
  0
POINT
  5
1A99
  8
DEFPOINTS
  6
BYBLOCK
 62
     3
 10
1.0
 20
4.999999999999996
 30
0.0
  0
POINT
  5
1A9A
  8
DEFPOINTS
  6
BYBLOCK
 62
     3
 10
0.0
 20
-0.0000000000000036
 30
0.0
  0
LINE
  5
1A9B
  8
0
  6
BYBLOCK
 62
     3
 10
1.5
 20
4.999999999999996
 30
0.0
 11
10.94561884057343
 21
4.999999999999996
 31
0.0
  0
LINE
  5
1A9C
  8
0
  6
BYBLOCK
 62
     3
 10
0.5
 20
-0.0000000000000036
 30
0.0
 11
10.94561884057343
 21
-0.0000000000000036
 31
0.0
  0
LINE
  5
1A9D
  8
0
  6
BYBLOCK
 62
     3
 10
10.44561884057343
 20
4.999999999999996
 30
0.0
 11
10.44561884057343
 21
-0.0000000000000036
 31
0.0
  0
SOLID
  5
1A9E
  8
0
  6
BYBLOCK
 62
     3
 10
10.44561884057343
 20
4.999999999999996
 30
0.0
 11
10.19561884057338
 21
3.499999999999996
 31
0.0
 12
10.69561884057348
 22
3.499999999999996
 32
0.0
 13
10.69561884057348
 23
3.499999999999996
 33
0.0
  0
SOLID
  5
1A9F
  8
0
  6
BYBLOCK
 62
     3
 10
10.44561884057343
 20
-0.0000000000000036
 30
0.0
 11
10.19561884057338
 21
1.499999999999996
 31
0.0
 12
10.69561884057348
 22
1.499999999999996
 32
0.0
 13
10.69561884057348
 23
1.499999999999996
 33
0.0
  0
TEXT
  5
1AA0
  8
0
  6
CONTINUOUS
 62
     3
 10
10.35154275361691
 20
1.568797717729689
 30
0.0
 40
2.0
  1
5
 50
90.0
  7
돋움
  0
ENDBLK
  8
0
  0
BLOCK
  8
0
  2
*D4
 70
     1
 10
0.0
 20
0.0
 30
0.0
  0
LINE
  5
1A26
  8
0
  6
BYBLOCK
 62
     3
 10
-2.173808793210612
 20
-0.2347288490029788
 30
0.0
 11
-7.743973294485959
 21
-3.398596262226112
 31
0.0
  0
LINE
  5
1A27
  8
0
  6
BYBLOCK
 62
     3
 10
-6.454762909973378
 20
-2.666321528972845
 30
0.0
 11
-6.454762909973378
 21
-2.666321528972845
 31
0.0
  0
SOLID
  5
1A28
  8
0
  6
BYBLOCK
 62
     3
 10
-0.8695235172842446
 20
0.5061084603988085
 30
0.0
 11
-2.297281678110934
 21
-0.0173479696818741
 31
0.0
 12
-2.050335908310289
 22
-0.4521097283240835
 32
0.0
 13
-2.050335908310289
 23
-0.4521097283240835
 33
0.0
  0
TEXT
  5
1A29
  8
0
  6
CONTINUOUS
 62
     3
 10
-7.575766074698934
 20
-3.199549175733025
 30
0.0
 40
2.0
  1
R1
 50
29.59668373417392
  7
돋움
  0
POINT
  5
1A2A
  8
DEFPOINTS
  6
BYBLOCK
 62
     3
 10
0.0000000000000002
 20
1.0
 30
0.0
  0
POINT
  5
1A2B
  8
DEFPOINTS
  6
BYBLOCK
 62
     3
 10
-0.8695235172842446
 20
0.5061084603988085
 30
0.0
  0
ENDBLK
  8
0
  0
BLOCK
  8
0
  2
*X5
 70
     1
 10
0.0
 20
0.0
 30
0.0
  0
TEXT
  5
1AD3
  8
0
  6
CONTINUOUS
 62
     3
 10
-1.854490450352849
 20
52.74638438680276
 30
0.0
 40
2.0
  1
\U+2205
  7
돋움
  0
TEXT
  5
1AD4
  8
0
  6
CONTINUOUS
 62
     3
 10
-0.0449666408290401
 20
52.74638438680276
 30
0.0
 40
2.0
  1
6
  7
돋움
  0
ENDBLK
  8
0
  0
ENDSEC
  0
SECTION
  2
ENTITIES
  0
LINE
  5
394
  8
0
 10
-2.5
 20
50.0
 30
0.0
 11
2.5
 21
50.0
 31
0.0
  0
ARC
  5
397
  8
0
 10
0.0000000000000002
 20
1.0
 30
0.0
 40
1.0
 50
180.0
 51
0.0000000000008142
  0
LINE
  5
398
  8
0
 10
-3.0
 20
12.46410161513776
 30
0.0
 11
-3.0
 21
49.5
 31
0.0
  0
LINE
  5
399
  8
0
 10
3.0
 20
12.46410161513774
 30
0.0
 11
3.0
 21
49.5
 31
0.0
  0
LINE
  5
39A
  8
0
 10
1.0
 20
4.999999999999996
 30
0.0
 11
3.0
 21
12.46410161513774
 31
0.0
  0
LINE
  5
39B
  8
0
 10
-0.9999999999999998
 20
4.999999999999996
 30
0.0
 11
-3.0
 21
12.46410161513776
 31
0.0
  0
LINE
  5
39C
  8
0
 10
-3.0
 20
49.5
 30
0.0
 11
3.0
 21
49.5
 31
0.0
  0
LINE
  5
39D
  8
0
 10
-3.0
 20
49.5
 30
0.0
 11
-2.5
 21
50.0
 31
0.0
  0
LINE
  5
39E
  8
0
 10
3.0
 20
49.5
 30
0.0
 11
2.5
 21
50.0
 31
0.0
  0
DIMENSION
  5
39F
  8
0
  2
*D1
 10
3.0
 20
52.6020365607158
 30
0.0
 11
-0.3306809265433256
 21
52.6020365607158
 31
0.0
 70
   160
  1
%%c<>
 13
-3.0
 23
49.5
 33
0.0
 14
3.0
 24
49.5
 34
0.0
  0
DIMENSION
  5
89F
  8
0
  2
*D2
 10
13.98344690284555
 20
-0.0000000000000044
 30
0.0
 11
12.88937081588903
 21
25.0
 31
0.0
 70
    32
 13
2.5
 23
50.0
 33
0.0
 14
0.0
 24
-0.0000000000000036
 34
0.0
 50
90.0
  0
DIMENSION
  5
13E8
  8
0
  2
*D3
 10
10.44561884057343
 20
-0.0000000000000036
 30
0.0
 11
10.44561884057343
 21
2.235464384396355
 31
0.0
 70
   160
 13
1.0
 23
4.999999999999996
 33
0.0
 14
0.0
 24
-0.0000000000000036
 34
0.0
 50
90.0
  0
LINE
  5
18DF
  8
0
 10
-0.9999999999999998
 20
1.0
 30
0.0
 11
-0.9999999999999998
 21
4.999999999999996
 31
0.0
  0
LINE
  5
18E4
  8
0
 10
1.0
 20
1.000000000000014
 30
0.0
 11
1.0
 21
4.999999999999996
 31
0.0
  0
DIMENSION
  5
1941
  8
0
  2
*D4
 10
0.0000000000000002
 20
1.0
 30
0.0
 11
-6.454762909973378
 21
-2.666321528972845
 31
0.0
 70
   164
 15
-0.8695235172842446
 25
0.5061084603988085
 35
0.0
 40
0.0
  0
ENDSEC
  0
EOF
