  0
SECTION
  2
HEADER
  9
$ACADVER
  1
AC1006
  9
$DWGCODEPAGE
  3
ansi_949
  9
$INSBASE
 10
0.0
 20
0.0
 30
0.0
  9
$EXTMIN
 10
-11.06379163245043
 20
-4.381653707747614
  9
$EXTMAX
 10
15.18675711438454
 20
54.91986739291226
  9
$LIMMIN
 10
0.0
 20
0.0
  9
$LIMMAX
 10
12.0
 20
9.0
  9
$ORTHOMODE
 70
     1
  9
$REGENMODE
 70
     1
  9
$FILLMODE
 70
     1
  9
$QTEXTMODE
 70
     0
  9
$MIRRTEXT
 70
     0
  9
$DRAGMODE
 70
     2
  9
$LTSCALE
 40
1.0
  9
$OSMODE
 70
    37
  9
$ATTMODE
 70
     1
  9
$TEXTSIZE
 40
0.2
  9
$TRACEWID
 40
0.05
  9
$TEXTSTYLE
  7
STANDARD
  9
$CLAYER
  8
0
  9
$CELTYPE
  6
BYLAYER
  9
$CECOLOR
 62
   256
  9
$DIMSCALE
 40
1.0
  9
$DIMASZ
 40
1.5
  9
$DIMEXO
 40
0.5
  9
$DIMDLI
 40
2.0
  9
$DIMRND
 40
0.0
  9
$DIMDLE
 40
0.0
  9
$DIMEXE
 40
0.5
  9
$DIMTP
 40
0.0
  9
$DIMTM
 40
0.0
  9
$DIMTXT
 40
2.0
  9
$DIMCEN
 40
0.0
  9
$DIMTSZ
 40
0.0
  9
$DIMTOL
 70
     0
  9
$DIMLIM
 70
     0
  9
$DIMTIH
 70
     0
  9
$DIMTOH
 70
     0
  9
$DIMSE1
 70
     0
  9
$DIMSE2
 70
     0
  9
$DIMTAD
 70
     1
  9
$DIMZIN
 70
     0
  9
$DIMBLK
  1

  9
$DIMASO
 70
     1
  9
$DIMSHO
 70
     1
  9
$DIMPOST
  1

  9
$DIMAPOST
  1

  9
$DIMALT
 70
     0
  9
$DIMALTD
 70
     2
  9
$DIMALTF
 40
25.4
  9
$DIMLFAC
 40
1.0
  9
$DIMTOFL
 70
     0
  9
$DIMTVP
 40
0.0
  9
$DIMTIX
 70
     0
  9
$DIMSOXD
 70
     0
  9
$DIMSAH
 70
     0
  9
$DIMBLK1
  1

  9
$DIMBLK2
  1

  9
$LUNITS
 70
     2
  9
$LUPREC
 70
     4
  9
$SKETCHINC
 40
0.1
  9
$FILLETRAD
 40
0.0
  9
$AUNITS
 70
     0
  9
$AUPREC
 70
     0
  9
$MENU
  1
.
  9
$ELEVATION
 40
0.0
  9
$THICKNESS
 40
0.0
  9
$LIMCHECK
 70
     0
  9
$CHAMFERA
 40
0.0
  9
$CHAMFERB
 40
0.0
  9
$SKPOLY
 70
     0
  9
$TDCREATE
 40
2453353.842125822
  9
$TDUPDATE
 40
2459503.46195544
  9
$TDINDWG
 40
0.0709004398
  9
$TDUSRTIMER
 40
0.0708773032
  9
$USRTIMER
 70
     1
  9
$ANGBASE
 50
0.0
  9
$ANGDIR
 70
     0
  9
$PDMODE
 70
     0
  9
$PDSIZE
 40
0.0
  9
$PLINEWID
 40
0.0
  9
$COORDS
 70
     1
  9
$SPLFRAME
 70
     0
  9
$SPLINETYPE
 70
     6
  9
$SPLINESEGS
 70
     8
  9
$ATTDIA
 70
     0
  9
$ATTREQ
 70
     1
  9
$HANDLING
 70
     1
  9
$HANDSEED
  5
1C9B
  9
$SURFTAB1
 70
     6
  9
$SURFTAB2
 70
     6
  9
$SURFTYPE
 70
     6
  9
$SURFU
 70
     6
  9
$SURFV
 70
     6
  9
$UCSNAME
  2

  9
$UCSORG
 10
0.0
 20
0.0
 30
0.0
  9
$UCSXDIR
 10
1.0
 20
0.0
 30
0.0
  9
$UCSYDIR
 10
0.0
 20
1.0
 30
0.0
  9
$USERI1
 70
     0
  9
$USERI2
 70
     0
  9
$USERI3
 70
     0
  9
$USERI4
 70
     0
  9
$USERI5
 70
     0
  9
$USERR1
 40
0.0
  9
$USERR2
 40
0.0
  9
$USERR3
 40
0.0
  9
$USERR4
 40
0.0
  9
$USERR5
 40
0.0
  9
$WORLDVIEW
 70
     1
  0
ENDSEC
  0
SECTION
  2
TABLES
  0
TABLE
  2
VPORT
 70
     1
  0
VPORT
  2
*ACTIVE
 70
     0
 10
0.0
 20
0.0
 11
1.0
 21
1.0
 12
2.061482740967056
 22
25.26910684258232
 13
0.0
 23
0.0
 14
0.5
 24
0.5
 15
0.5
 25
0.5
 16
0.0
 26
0.0
 36
1.0
 17
0.0
 27
0.0
 37
0.0
 40
60.48755152267307
 41
1.701534170153417
 42
50.0
 43
0.0
 44
0.0
 50
0.0
 51
0.0
 71
    16
 72
  1000
 73
     1
 74
     3
 75
     0
 76
     0
 77
     0
 78
     0
  0
ENDTAB
  0
TABLE
  2
LTYPE
 70
     1
  0
LTYPE
  2
CONTINUOUS
 70
     0
  3
Solid line
 72
    65
 73
     0
 40
0.0
  0
ENDTAB
  0
TABLE
  2
LAYER
 70
     2
  0
LAYER
  2
0
 70
     0
 62
     7
  6
CONTINUOUS
  0
LAYER
  2
DEFPOINTS
 70
     0
 62
     7
  6
CONTINUOUS
  0
ENDTAB
  0
TABLE
  2
STYLE
 70
     2
  0
STYLE
  2
STANDARD
 70
     0
 40
0.0
 41
1.0
 50
0.0
 71
     0
 42
0.2
  3
IC-txt.shx
  4

  0
STYLE
  2
돋움
 70
     0
 40
0.0
 41
1.0
 50
0.0
 71
     0
 42
0.2
  3
Dotum.ttf
  4

  0
ENDTAB
  0
TABLE
  2
VIEW
 70
     0
  0
ENDTAB
  0
TABLE
  2
UCS
 70
     0
  0
ENDTAB
  0
ENDSEC
  0
SECTION
  2
BLOCKS
  0
BLOCK
  8
0
  2
*D1
 70
     1
 10
0.0
 20
0.0
 30
0.0
  0
POINT
  5
1BA4
  8
DEFPOINTS
  6
BYBLOCK
 62
     3
 10
-3.0
 20
49.5
 30
0.0
  0
POINT
  5
1BA5
  8
DEFPOINTS
  6
BYBLOCK
 62
     3
 10
3.0
 20
49.5
 30
0.0
  0
LINE
  5
1BA6
  8
0
  6
BYBLOCK
 62
     3
 10
-3.0
 20
50.0
 30
0.0
 11
-3.0
 21
53.1020365607158
 31
0.0
  0
LINE
  5
1BA7
  8
0
  6
BYBLOCK
 62
     3
 10
3.0
 20
50.0
 30
0.0
 11
3.0
 21
53.1020365607158
 31
0.0
  0
LINE
  5
1BA8
  8
0
  6
BYBLOCK
 62
     3
 10
-3.0
 20
52.6020365607158
 30
0.0
 11
3.0
 21
52.6020365607158
 31
0.0
  0
SOLID
  5
1BA9
  8
0
  6
BYBLOCK
 62
     3
 10
-3.0
 20
52.6020365607158
 30
0.0
 11
-1.5
 21
52.35203656071575
 31
0.0
 12
-1.5
 22
52.85203656071585
 32
0.0
 13
-1.5
 23
52.85203656071585
 33
0.0
  0
SOLID
  5
1BAA
  8
0
  6
BYBLOCK
 62
     3
 10
3.0
 20
52.6020365607158
 30
0.0
 11
1.5
 21
52.35203656071575
 31
0.0
 12
1.5
 22
52.85203656071585
 32
0.0
 13
1.5
 23
52.85203656071585
 33
0.0
  0
INSERT
  5
1BAB
  8
0
  6
BYBLOCK
 62
     3
  2
*X5
 10
0.0
 20
0.0
 30
0.0
  0
ENDBLK
  8
0
  0
BLOCK
  8
0
  2
*D2
 70
     1
 10
0.0
 20
0.0
 30
0.0
  0
POINT
  5
1C30
  8
DEFPOINTS
  6
BYBLOCK
 62
     3
 10
2.5
 20
50.0
 30
0.0
  0
POINT
  5
1C31
  8
DEFPOINTS
  6
BYBLOCK
 62
     3
 10
0.0
 20
-0.0000000000000036
 30
0.0
  0
LINE
  5
1C32
  8
0
  6
BYBLOCK
 62
     3
 10
3.0
 20
50.0
 30
0.0
 11
15.18675711438454
 21
50.0
 31
0.0
  0
LINE
  5
1C33
  8
0
  6
BYBLOCK
 62
     3
 10
0.5
 20
0.0
 30
0.0
 11
15.18675711438454
 21
0.0
 31
0.0
  0
LINE
  5
1C34
  8
0
  6
BYBLOCK
 62
     3
 10
14.68675711438454
 20
50.0
 30
0.0
 11
14.68675711438454
 21
0.0
 31
0.0
  0
SOLID
  5
1C35
  8
0
  6
BYBLOCK
 62
     3
 10
14.68675711438454
 20
50.0
 30
0.0
 11
14.43675711438449
 21
48.5
 31
0.0
 12
14.93675711438459
 22
48.5
 32
0.0
 13
14.93675711438459
 23
48.5
 33
0.0
  0
SOLID
  5
1C36
  8
0
  6
BYBLOCK
 62
     3
 10
14.68675711438454
 20
0.0
 30
0.0
 11
14.43675711438449
 21
1.5
 31
0.0
 12
14.93675711438459
 22
1.5
 32
0.0
 13
14.93675711438459
 23
1.5
 33
0.0
  0
TEXT
  5
1C37
  8
0
  6
CONTINUOUS
 62
     3
 10
14.59268102742802
 20
23.38095238095238
 30
0.0
 40
2.0
  1
50
 50
90.0
  7
돋움
  0
ENDBLK
  8
0
  0
BLOCK
  8
0
  2
*D3
 70
     1
 10
0.0
 20
0.0
 30
0.0
  0
POINT
  5
1C5D
  8
DEFPOINTS
  6
BYBLOCK
 62
     3
 10
1.25
 20
4.999999999999996
 30
0.0
  0
POINT
  5
1C5E
  8
DEFPOINTS
  6
BYBLOCK
 62
     3
 10
0.0
 20
-0.0000000000000036
 30
0.0
  0
LINE
  5
1C5F
  8
0
  6
BYBLOCK
 62
     3
 10
1.75
 20
4.999999999999996
 30
0.0
 11
11.64892905211243
 21
4.999999999999996
 31
0.0
  0
LINE
  5
1C60
  8
0
  6
BYBLOCK
 62
     3
 10
0.5
 20
-0.0000000000000036
 30
0.0
 11
11.64892905211243
 21
-0.0000000000000036
 31
0.0
  0
LINE
  5
1C61
  8
0
  6
BYBLOCK
 62
     3
 10
11.14892905211243
 20
4.999999999999996
 30
0.0
 11
11.14892905211243
 21
-0.0000000000000036
 31
0.0
  0
SOLID
  5
1C62
  8
0
  6
BYBLOCK
 62
     3
 10
11.14892905211243
 20
4.999999999999996
 30
0.0
 11
10.89892905211238
 21
3.499999999999996
 31
0.0
 12
11.39892905211248
 22
3.499999999999996
 32
0.0
 13
11.39892905211248
 23
3.499999999999996
 33
0.0
  0
SOLID
  5
1C63
  8
0
  6
BYBLOCK
 62
     3
 10
11.14892905211243
 20
-0.0000000000000036
 30
0.0
 11
10.89892905211238
 21
1.499999999999996
 31
0.0
 12
11.39892905211248
 22
1.499999999999996
 32
0.0
 13
11.39892905211248
 23
1.499999999999996
 33
0.0
  0
TEXT
  5
1C64
  8
0
  6
CONTINUOUS
 62
     3
 10
11.0548529651559
 20
2.247290562091951
 30
0.0
 40
2.0
  1
5
 50
90.0
  7
돋움
  0
ENDBLK
  8
0
  0
BLOCK
  8
0
  2
*D4
 70
     1
 10
0.0
 20
0.0
 30
0.0
  0
LINE
  5
1A50
  8
0
  6
BYBLOCK
 62
     3
 10
-2.429780406483148
 20
-0.0378925328887453
 30
0.0
 11
-10.62486308891847
 21
-4.381653707747614
 31
0.0
  0
LINE
  5
1A51
  8
0
  6
BYBLOCK
 62
     3
 10
-7.18998913128712
 20
-2.561016538378749
 30
0.0
 11
-7.18998913128712
 21
-2.561016538378749
 31
0.0
  0
SOLID
  5
1A52
  8
0
  6
BYBLOCK
 62
     3
 10
-1.104445639310522
 20
0.6645943032323882
 30
0.0
 11
-2.546861545836693
 21
0.1829965949734032
 31
0.0
 12
-2.312699267129602
 22
-0.2587816607508938
 32
0.0
 13
-2.312699267129602
 23
-0.2587816607508938
 33
0.0
  0
TEXT
  5
1A53
  8
0
  6
CONTINUOUS
 62
     3
 10
-10.64014202846971
 20
-4.287891173802734
 30
0.0
 40
2.0
  1
R1.25
 50
27.92559478634987
  7
돋움
  0
POINT
  5
1A54
  8
DEFPOINTS
  6
BYBLOCK
 62
     3
 10
0.0000000000000002
 20
1.25
 30
0.0
  0
POINT
  5
1A55
  8
DEFPOINTS
  6
BYBLOCK
 62
     3
 10
-1.104445639310522
 20
0.6645943032323882
 30
0.0
  0
ENDBLK
  8
0
  0
BLOCK
  8
0
  2
*X5
 70
     1
 10
0.0
 20
0.0
 30
0.0
  0
TEXT
  5
1C97
  8
0
  6
CONTINUOUS
 62
     3
 10
-1.854490450352849
 20
52.80595197681403
 30
0.0
 40
2.0
  1
\U+2205
  0
TEXT
  5
1C98
  8
0
  6
CONTINUOUS
 62
     3
 10
-0.0449666408290401
 20
52.80595197681403
 30
0.0
 40
2.0
  1
6
  0
ENDBLK
  8
0
  0
ENDSEC
  0
SECTION
  2
ENTITIES
  0
LINE
  5
394
  8
0
 10
-2.5
 20
50.0
 30
0.0
 11
2.5
 21
50.0
 31
0.0
  0
ARC
  5
397
  8
0
 10
0.0000000000000002
 20
1.25
 30
0.0
 40
1.25
 50
180.0
 51
0.0000000000008142
  0
LINE
  5
398
  8
0
 10
-3.0
 20
11.53108891324554
 30
0.0
 11
-3.0
 21
49.5
 31
0.0
  0
LINE
  5
399
  8
0
 10
3.0
 20
11.53108891324552
 30
0.0
 11
3.0
 21
49.5
 31
0.0
  0
LINE
  5
39A
  8
0
 10
1.25
 20
4.999999999999996
 30
0.0
 11
3.0
 21
11.53108891324552
 31
0.0
  0
LINE
  5
39B
  8
0
 10
-1.25
 20
4.999999999999996
 30
0.0
 11
-3.0
 21
11.53108891324554
 31
0.0
  0
LINE
  5
39C
  8
0
 10
-3.0
 20
49.5
 30
0.0
 11
3.0
 21
49.5
 31
0.0
  0
LINE
  5
39D
  8
0
 10
-3.0
 20
49.5
 30
0.0
 11
-2.5
 21
50.0
 31
0.0
  0
LINE
  5
39E
  8
0
 10
3.0
 20
49.5
 30
0.0
 11
2.5
 21
50.0
 31
0.0
  0
DIMENSION
  5
39F
  8
0
  2
*D1
 10
3.0
 20
52.6020365607158
 30
0.0
 11
-0.3306809265433256
 21
52.6020365607158
 31
0.0
 70
   160
  1
{\fArial|b0|i0|c0|p32;%%c\f\U+B3CB\U+C6C0|b0|i0|c129|p0;<>}
 13
-3.0
 23
49.5
 33
0.0
 14
3.0
 24
49.5
 34
0.0
  0
DIMENSION
  5
89F
  8
0
  2
*D2
 10
14.68675711438454
 20
-0.0000000000000045
 30
0.0
 11
13.59268102742802
 21
25.0
 31
0.0
 70
    32
 13
2.5
 23
50.0
 33
0.0
 14
0.0
 24
-0.0000000000000036
 34
0.0
 50
90.0
  0
DIMENSION
  5
13E8
  8
0
  2
*D3
 10
11.14892905211243
 20
-0.0000000000000036
 30
0.0
 11
11.14892905211243
 21
2.913957228758617
 31
0.0
 70
   160
 13
1.25
 23
4.999999999999996
 33
0.0
 14
0.0
 24
-0.0000000000000036
 34
0.0
 50
90.0
  0
LINE
  5
19E0
  8
0
 10
-1.25
 20
1.25
 30
0.0
 11
-1.25
 21
4.999999999999996
 31
0.0
  0
LINE
  5
1A01
  8
0
 10
1.25
 20
1.250000000000018
 30
0.0
 11
1.25
 21
4.999999999999996
 31
0.0
  0
DIMENSION
  5
1A20
  8
0
  2
*D4
 10
0.0000000000000002
 20
1.25
 30
0.0
 11
-7.18998913128712
 21
-2.561016538378749
 31
0.0
 70
   164
 15
-1.104445639310522
 25
0.6645943032323882
 35
0.0
 40
0.0
  0
ENDSEC
  0
EOF
