  0
SECTION
  2
HEADER
  9
$ACADVER
  1
AC1006
  9
$DWGCODEPAGE
  3
ansi_949
  9
$INSBASE
 10
0.0
 20
0.0
 30
0.0
  9
$EXTMIN
 10
-10.18354982438477
 20
-4.090854993825678
  9
$EXTMAX
 10
14.21459681881537
 20
64.91986739291225
  9
$LIMMIN
 10
0.0
 20
0.0
  9
$LIMMAX
 10
12.0
 20
9.0
  9
$ORTHOMODE
 70
     1
  9
$REGENMODE
 70
     1
  9
$FILLMODE
 70
     1
  9
$QTEXTMODE
 70
     0
  9
$MIRRTEXT
 70
     0
  9
$DRAGMODE
 70
     2
  9
$LTSCALE
 40
1.0
  9
$OSMODE
 70
    37
  9
$ATTMODE
 70
     1
  9
$TEXTSIZE
 40
0.2
  9
$TRACEWID
 40
0.05
  9
$TEXTSTYLE
  7
STANDARD
  9
$CLAYER
  8
0
  9
$CELTYPE
  6
BYLAYER
  9
$CECOLOR
 62
   256
  9
$DIMSCALE
 40
1.0
  9
$DIMASZ
 40
1.5
  9
$DIMEXO
 40
0.5
  9
$DIMDLI
 40
2.0
  9
$DIMRND
 40
0.0
  9
$DIMDLE
 40
0.0
  9
$DIMEXE
 40
0.5
  9
$DIMTP
 40
0.0
  9
$DIMTM
 40
0.0
  9
$DIMTXT
 40
2.0
  9
$DIMCEN
 40
0.0
  9
$DIMTSZ
 40
0.0
  9
$DIMTOL
 70
     0
  9
$DIMLIM
 70
     0
  9
$DIMTIH
 70
     0
  9
$DIMTOH
 70
     0
  9
$DIMSE1
 70
     0
  9
$DIMSE2
 70
     0
  9
$DIMTAD
 70
     1
  9
$DIMZIN
 70
     0
  9
$DIMBLK
  1

  9
$DIMASO
 70
     1
  9
$DIMSHO
 70
     1
  9
$DIMPOST
  1

  9
$DIMAPOST
  1

  9
$DIMALT
 70
     0
  9
$DIMALTD
 70
     2
  9
$DIMALTF
 40
25.4
  9
$DIMLFAC
 40
1.0
  9
$DIMTOFL
 70
     0
  9
$DIMTVP
 40
0.0
  9
$DIMTIX
 70
     0
  9
$DIMSOXD
 70
     0
  9
$DIMSAH
 70
     0
  9
$DIMBLK1
  1

  9
$DIMBLK2
  1

  9
$LUNITS
 70
     2
  9
$LUPREC
 70
     4
  9
$SKETCHINC
 40
0.1
  9
$FILLETRAD
 40
0.0
  9
$AUNITS
 70
     0
  9
$AUPREC
 70
     0
  9
$MENU
  1
.
  9
$ELEVATION
 40
0.0
  9
$THICKNESS
 40
0.0
  9
$LIMCHECK
 70
     0
  9
$CHAMFERA
 40
0.0
  9
$CHAMFERB
 40
0.0
  9
$SKPOLY
 70
     0
  9
$TDCREATE
 40
2453353.842125822
  9
$TDUPDATE
 40
2459503.462015729
  9
$TDINDWG
 40
0.0708889005
  9
$TDUSRTIMER
 40
0.0708541551
  9
$USRTIMER
 70
     1
  9
$ANGBASE
 50
0.0
  9
$ANGDIR
 70
     0
  9
$PDMODE
 70
     0
  9
$PDSIZE
 40
0.0
  9
$PLINEWID
 40
0.0
  9
$COORDS
 70
     1
  9
$SPLFRAME
 70
     0
  9
$SPLINETYPE
 70
     6
  9
$SPLINESEGS
 70
     8
  9
$ATTDIA
 70
     0
  9
$ATTREQ
 70
     1
  9
$HANDLING
 70
     1
  9
$HANDSEED
  5
1C93
  9
$SURFTAB1
 70
     6
  9
$SURFTAB2
 70
     6
  9
$SURFTYPE
 70
     6
  9
$SURFU
 70
     6
  9
$SURFV
 70
     6
  9
$UCSNAME
  2

  9
$UCSORG
 10
0.0
 20
0.0
 30
0.0
  9
$UCSXDIR
 10
1.0
 20
0.0
 30
0.0
  9
$UCSYDIR
 10
0.0
 20
1.0
 30
0.0
  9
$USERI1
 70
     0
  9
$USERI2
 70
     0
  9
$USERI3
 70
     0
  9
$USERI4
 70
     0
  9
$USERI5
 70
     0
  9
$USERR1
 40
0.0
  9
$USERR2
 40
0.0
  9
$USERR3
 40
0.0
  9
$USERR4
 40
0.0
  9
$USERR5
 40
0.0
  9
$WORLDVIEW
 70
     1
  0
ENDSEC
  0
SECTION
  2
TABLES
  0
TABLE
  2
VPORT
 70
     1
  0
VPORT
  2
*ACTIVE
 70
     0
 10
0.0
 20
0.0
 11
1.0
 21
1.0
 12
2.0155234972153
 22
30.41450619954329
 13
0.0
 23
0.0
 14
0.5
 24
0.5
 15
0.5
 25
0.5
 16
0.0
 26
0.0
 36
1.0
 17
0.0
 27
0.0
 37
0.0
 40
70.39093683447268
 41
1.701534170153417
 42
50.0
 43
0.0
 44
0.0
 50
0.0
 51
0.0
 71
    16
 72
  1000
 73
     1
 74
     3
 75
     0
 76
     0
 77
     0
 78
     0
  0
ENDTAB
  0
TABLE
  2
LTYPE
 70
     1
  0
LTYPE
  2
CONTINUOUS
 70
     0
  3
Solid line
 72
    65
 73
     0
 40
0.0
  0
ENDTAB
  0
TABLE
  2
LAYER
 70
     2
  0
LAYER
  2
0
 70
     0
 62
     7
  6
CONTINUOUS
  0
LAYER
  2
DEFPOINTS
 70
     0
 62
     7
  6
CONTINUOUS
  0
ENDTAB
  0
TABLE
  2
STYLE
 70
     2
  0
STYLE
  2
STANDARD
 70
     0
 40
0.0
 41
1.0
 50
0.0
 71
     0
 42
0.2
  3
IC-txt.shx
  4

  0
STYLE
  2
돋움
 70
     0
 40
0.0
 41
1.0
 50
0.0
 71
     0
 42
0.2
  3
Dotum.ttf
  4

  0
ENDTAB
  0
TABLE
  2
VIEW
 70
     0
  0
ENDTAB
  0
TABLE
  2
UCS
 70
     0
  0
ENDTAB
  0
ENDSEC
  0
SECTION
  2
BLOCKS
  0
BLOCK
  8
0
  2
*D1
 70
     1
 10
0.0
 20
0.0
 30
0.0
  0
POINT
  5
1C45
  8
DEFPOINTS
  6
BYBLOCK
 62
     3
 10
-3.0
 20
59.5
 30
0.0
  0
POINT
  5
1C46
  8
DEFPOINTS
  6
BYBLOCK
 62
     3
 10
3.0
 20
59.5
 30
0.0
  0
LINE
  5
1C47
  8
0
  6
BYBLOCK
 62
     3
 10
-3.0
 20
60.0
 30
0.0
 11
-3.0
 21
63.1020365607158
 31
0.0
  0
LINE
  5
1C48
  8
0
  6
BYBLOCK
 62
     3
 10
3.0
 20
60.0
 30
0.0
 11
3.0
 21
63.1020365607158
 31
0.0
  0
LINE
  5
1C49
  8
0
  6
BYBLOCK
 62
     3
 10
-3.0
 20
62.6020365607158
 30
0.0
 11
3.0
 21
62.6020365607158
 31
0.0
  0
SOLID
  5
1C4A
  8
0
  6
BYBLOCK
 62
     3
 10
-3.0
 20
62.6020365607158
 30
0.0
 11
-1.5
 21
62.35203656071575
 31
0.0
 12
-1.5
 22
62.85203656071585
 32
0.0
 13
-1.5
 23
62.85203656071585
 33
0.0
  0
SOLID
  5
1C4B
  8
0
  6
BYBLOCK
 62
     3
 10
3.0
 20
62.6020365607158
 30
0.0
 11
1.5
 21
62.35203656071575
 31
0.0
 12
1.5
 22
62.85203656071585
 32
0.0
 13
1.5
 23
62.85203656071585
 33
0.0
  0
INSERT
  5
1C4C
  8
0
  6
BYBLOCK
 62
     3
  2
*X5
 10
0.0
 20
0.0
 30
0.0
  0
ENDBLK
  8
0
  0
BLOCK
  8
0
  2
*D2
 70
     1
 10
0.0
 20
0.0
 30
0.0
  0
POINT
  5
1C55
  8
DEFPOINTS
  6
BYBLOCK
 62
     3
 10
2.5
 20
60.0
 30
0.0
  0
POINT
  5
1C56
  8
DEFPOINTS
  6
BYBLOCK
 62
     3
 10
0.0
 20
-0.0000000000000036
 30
0.0
  0
LINE
  5
1C57
  8
0
  6
BYBLOCK
 62
     3
 10
3.0
 20
60.0
 30
0.0
 11
14.21459681881537
 21
60.0
 31
0.0
  0
LINE
  5
1C58
  8
0
  6
BYBLOCK
 62
     3
 10
0.5
 20
0.0
 30
0.0
 11
14.21459681881537
 21
0.0
 31
0.0
  0
LINE
  5
1C59
  8
0
  6
BYBLOCK
 62
     3
 10
13.71459681881537
 20
60.0
 30
0.0
 11
13.71459681881537
 21
0.0
 31
0.0
  0
SOLID
  5
1C5A
  8
0
  6
BYBLOCK
 62
     3
 10
13.71459681881537
 20
60.0
 30
0.0
 11
13.46459681881532
 21
58.5
 31
0.0
 12
13.96459681881542
 22
58.5
 32
0.0
 13
13.96459681881542
 23
58.5
 33
0.0
  0
SOLID
  5
1C5B
  8
0
  6
BYBLOCK
 62
     3
 10
13.71459681881537
 20
0.0
 30
0.0
 11
13.46459681881532
 21
1.5
 31
0.0
 12
13.96459681881542
 22
1.5
 32
0.0
 13
13.96459681881542
 23
1.5
 33
0.0
  0
TEXT
  5
1C5C
  8
0
  6
CONTINUOUS
 62
     3
 10
13.61916203620667
 20
28.38095238095238
 30
0.0
 40
2.0
  1
60
 50
90.0
  7
돋움
  0
ENDBLK
  8
0
  0
BLOCK
  8
0
  2
*D3
 70
     1
 10
0.0
 20
0.0
 30
0.0
  0
POINT
  5
1C28
  8
DEFPOINTS
  6
BYBLOCK
 62
     3
 10
1.5
 20
5.999999999999996
 30
0.0
  0
POINT
  5
1C29
  8
DEFPOINTS
  6
BYBLOCK
 62
     3
 10
0.0
 20
-0.0000000000000036
 30
0.0
  0
LINE
  5
1C2A
  8
0
  6
BYBLOCK
 62
     3
 10
2.0
 20
5.999999999999996
 30
0.0
 11
10.67676875654325
 21
5.999999999999996
 31
0.0
  0
LINE
  5
1C2B
  8
0
  6
BYBLOCK
 62
     3
 10
0.5
 20
-0.0000000000000036
 30
0.0
 11
10.67676875654325
 21
-0.0000000000000036
 31
0.0
  0
LINE
  5
1C2C
  8
0
  6
BYBLOCK
 62
     3
 10
10.17676875654325
 20
5.999999999999996
 30
0.0
 11
10.17676875654325
 21
-0.0000000000000036
 31
0.0
  0
SOLID
  5
1C2D
  8
0
  6
BYBLOCK
 62
     3
 10
10.17676875654325
 20
5.999999999999996
 30
0.0
 11
9.926768756543204
 21
4.499999999999996
 31
0.0
 12
10.4267687565433
 22
4.499999999999996
 32
0.0
 13
10.4267687565433
 23
4.499999999999996
 33
0.0
  0
SOLID
  5
1C2E
  8
0
  6
BYBLOCK
 62
     3
 10
10.17676875654325
 20
-0.0000000000000036
 30
0.0
 11
9.926768756543204
 21
1.499999999999996
 31
0.0
 12
10.4267687565433
 22
1.499999999999996
 32
0.0
 13
10.4267687565433
 23
1.499999999999996
 33
0.0
  0
TEXT
  5
1C2F
  8
0
  6
CONTINUOUS
 62
     3
 10
10.08133397393456
 20
2.380952380952378
 30
0.0
 40
2.0
  1
6
 50
90.0
  7
돋움
  0
ENDBLK
  8
0
  0
BLOCK
  8
0
  2
*D4
 70
     1
 10
0.0
 20
0.0
 30
0.0
  0
LINE
  5
1ABE
  8
0
  6
BYBLOCK
 62
     3
 10
-2.596888753363872
 20
-0.0020548600674454
 30
0.0
 11
-9.665977482674782
 21
-4.090854993825678
 31
0.0
  0
LINE
  5
1ABF
  8
0
  6
BYBLOCK
 62
     3
 10
-7.002943338237907
 20
-2.550541272648546
 30
0.0
 11
-7.002943338237907
 21
-2.550541272648546
 31
0.0
  0
SOLID
  5
1AC0
  8
0
  6
BYBLOCK
 62
     3
 10
-1.298444376681935
 20
0.7489725699662771
 30
0.0
 11
-2.72205999170285
 21
0.214352536046254
 31
0.0
 12
-2.471717515024893
 22
-0.2184622561811446
 32
0.0
 13
-2.471717515024893
 23
-0.2184622561811446
 33
0.0
  0
TEXT
  5
1AC1
  8
0
  6
CONTINUOUS
 62
     3
 10
-9.562452824598601
 20
-3.927005188843092
 30
0.0
 40
2.0
  1
R1.5
 50
30.04532650518876
  7
돋움
  0
POINT
  5
1AC2
  8
DEFPOINTS
  6
BYBLOCK
 62
     3
 10
0.0000000000000003
 20
1.5
 30
0.0
  0
POINT
  5
1AC3
  8
DEFPOINTS
  6
BYBLOCK
 62
     3
 10
-1.298444376681935
 20
0.7489725699662771
 30
0.0
  0
ENDBLK
  8
0
  0
BLOCK
  8
0
  2
*X5
 70
     1
 10
0.0
 20
0.0
 30
0.0
  0
TEXT
  5
1C8F
  8
0
  6
CONTINUOUS
 62
     3
 10
-1.854490450352849
 20
62.80595197681403
 30
0.0
 40
2.0
  1
\U+2205
  0
TEXT
  5
1C90
  8
0
  6
CONTINUOUS
 62
     3
 10
-0.0449666408290401
 20
62.80595197681403
 30
0.0
 40
2.0
  1
6
  0
ENDBLK
  8
0
  0
ENDSEC
  0
SECTION
  2
ENTITIES
  0
LINE
  5
394
  8
0
 10
-2.5
 20
60.0
 30
0.0
 11
2.5
 21
60.0
 31
0.0
  0
ARC
  5
397
  8
0
 10
0.0000000000000003
 20
1.5
 30
0.0
 40
1.5
 50
180.0
 51
0.0000000000008142
  0
LINE
  5
398
  8
0
 10
-3.0
 20
11.59807621135332
 30
0.0
 11
-3.0
 21
59.5
 31
0.0
  0
LINE
  5
399
  8
0
 10
3.0
 20
11.59807621135331
 30
0.0
 11
3.0
 21
59.5
 31
0.0
  0
LINE
  5
39A
  8
0
 10
1.5
 20
6.0
 30
0.0
 11
3.0
 21
11.59807621135331
 31
0.0
  0
LINE
  5
39B
  8
0
 10
-1.5
 20
6.0
 30
0.0
 11
-3.0
 21
11.59807621135332
 31
0.0
  0
LINE
  5
39C
  8
0
 10
-3.0
 20
59.5
 30
0.0
 11
3.0
 21
59.5
 31
0.0
  0
LINE
  5
39D
  8
0
 10
-3.0
 20
59.5
 30
0.0
 11
-2.5
 21
60.0
 31
0.0
  0
LINE
  5
39E
  8
0
 10
3.0
 20
59.5
 30
0.0
 11
2.5
 21
60.0
 31
0.0
  0
DIMENSION
  5
39F
  8
0
  2
*D1
 10
3.0
 20
62.6020365607158
 30
0.0
 11
-0.3306809265433256
 21
62.6020365607158
 31
0.0
 70
   160
  1
{\fArial|b0|i0|c0|p32;%%c\f\U+B3CB\U+C6C0|b0|i0|c129|p0;<>}
 13
-3.0
 23
59.5
 33
0.0
 14
3.0
 24
59.5
 34
0.0
  0
DIMENSION
  5
89F
  8
0
  2
*D2
 10
13.71459681881537
 20
-0.0000000000000044
 30
0.0
 11
12.61916203620668
 21
30.0
 31
0.0
 70
    32
 13
2.5
 23
60.0
 33
0.0
 14
0.0
 24
-0.0000000000000036
 34
0.0
 50
90.0
  0
DIMENSION
  5
13E8
  8
0
  2
*D3
 10
10.17676875654325
 20
-0.0000000000000036
 30
0.0
 11
10.17676875654325
 21
2.999999999999996
 31
0.0
 70
   160
 13
1.5
 23
5.999999999999996
 33
0.0
 14
0.0
 24
-0.0000000000000036
 34
0.0
 50
90.0
  0
LINE
  5
19CA
  8
0
 10
-1.5
 20
1.5
 30
0.0
 11
-1.5
 21
6.0
 31
0.0
  0
LINE
  5
19EF
  8
0
 10
1.5
 20
1.500000000000021
 30
0.0
 11
1.5
 21
6.0
 31
0.0
  0
DIMENSION
  5
1AAA
  8
0
  2
*D4
 10
0.0000000000000003
 20
1.5
 30
0.0
 11
-7.002943338237907
 21
-2.550541272648546
 31
0.0
 70
   164
 15
-1.298444376681935
 25
0.7489725699662771
 35
0.0
 40
0.0
  0
ENDSEC
  0
EOF
