  0
SECTION
  2
HEADER
  9
$ACADVER
  1
AC1006
  9
$DWGCODEPAGE
  3
ansi_949
  9
$INSBASE
 10
0.0
 20
0.0
 30
0.0
  9
$EXTMIN
 10
-9.703532455458355
 20
-2.932659073603734
  9
$EXTMAX
 10
14.67245246229605
 20
74.91986739291225
  9
$LIMMIN
 10
0.0
 20
0.0
  9
$LIMMAX
 10
12.0
 20
9.0
  9
$ORTHOMODE
 70
     1
  9
$REGENMODE
 70
     1
  9
$FILLMODE
 70
     1
  9
$QTEXTMODE
 70
     0
  9
$MIRRTEXT
 70
     0
  9
$DRAGMODE
 70
     2
  9
$LTSCALE
 40
1.0
  9
$OSMODE
 70
    37
  9
$ATTMODE
 70
     1
  9
$TEXTSIZE
 40
0.2
  9
$TRACEWID
 40
0.05
  9
$TEXTSTYLE
  7
STANDARD
  9
$CLAYER
  8
0
  9
$CELTYPE
  6
BYLAYER
  9
$CECOLOR
 62
   256
  9
$DIMSCALE
 40
1.0
  9
$DIMASZ
 40
1.5
  9
$DIMEXO
 40
0.5
  9
$DIMDLI
 40
2.0
  9
$DIMRND
 40
0.0
  9
$DIMDLE
 40
0.0
  9
$DIMEXE
 40
0.5
  9
$DIMTP
 40
0.0
  9
$DIMTM
 40
0.0
  9
$DIMTXT
 40
2.0
  9
$DIMCEN
 40
0.0
  9
$DIMTSZ
 40
0.0
  9
$DIMTOL
 70
     0
  9
$DIMLIM
 70
     0
  9
$DIMTIH
 70
     0
  9
$DIMTOH
 70
     0
  9
$DIMSE1
 70
     0
  9
$DIMSE2
 70
     0
  9
$DIMTAD
 70
     1
  9
$DIMZIN
 70
     0
  9
$DIMBLK
  1

  9
$DIMASO
 70
     1
  9
$DIMSHO
 70
     1
  9
$DIMPOST
  1

  9
$DIMAPOST
  1

  9
$DIMALT
 70
     0
  9
$DIMALTD
 70
     2
  9
$DIMALTF
 40
25.4
  9
$DIMLFAC
 40
1.0
  9
$DIMTOFL
 70
     0
  9
$DIMTVP
 40
0.0
  9
$DIMTIX
 70
     0
  9
$DIMSOXD
 70
     0
  9
$DIMSAH
 70
     0
  9
$DIMBLK1
  1

  9
$DIMBLK2
  1

  9
$LUNITS
 70
     2
  9
$LUPREC
 70
     4
  9
$SKETCHINC
 40
0.1
  9
$FILLETRAD
 40
0.0
  9
$AUNITS
 70
     0
  9
$AUPREC
 70
     0
  9
$MENU
  1
.
  9
$ELEVATION
 40
0.0
  9
$THICKNESS
 40
0.0
  9
$LIMCHECK
 70
     0
  9
$CHAMFERA
 40
0.0
  9
$CHAMFERB
 40
0.0
  9
$SKPOLY
 70
     0
  9
$TDCREATE
 40
2453353.842125822
  9
$TDUPDATE
 40
2459503.462234271
  9
$TDINDWG
 40
0.071826331
  9
$TDUSRTIMER
 40
0.0717916667
  9
$USRTIMER
 70
     1
  9
$ANGBASE
 50
0.0
  9
$ANGDIR
 70
     0
  9
$PDMODE
 70
     0
  9
$PDSIZE
 40
0.0
  9
$PLINEWID
 40
0.0
  9
$COORDS
 70
     1
  9
$SPLFRAME
 70
     0
  9
$SPLINETYPE
 70
     6
  9
$SPLINESEGS
 70
     8
  9
$ATTDIA
 70
     0
  9
$ATTREQ
 70
     1
  9
$HANDLING
 70
     1
  9
$HANDSEED
  5
1D9F
  9
$SURFTAB1
 70
     6
  9
$SURFTAB2
 70
     6
  9
$SURFTYPE
 70
     6
  9
$SURFU
 70
     6
  9
$SURFV
 70
     6
  9
$UCSNAME
  2

  9
$UCSORG
 10
0.0
 20
0.0
 30
0.0
  9
$UCSXDIR
 10
1.0
 20
0.0
 30
0.0
  9
$UCSYDIR
 10
0.0
 20
1.0
 30
0.0
  9
$USERI1
 70
     0
  9
$USERI2
 70
     0
  9
$USERI3
 70
     0
  9
$USERI4
 70
     0
  9
$USERI5
 70
     0
  9
$USERR1
 40
0.0
  9
$USERR2
 40
0.0
  9
$USERR3
 40
0.0
  9
$USERR4
 40
0.0
  9
$USERR5
 40
0.0
  9
$WORLDVIEW
 70
     1
  0
ENDSEC
  0
SECTION
  2
TABLES
  0
TABLE
  2
VPORT
 70
     1
  0
VPORT
  2
*ACTIVE
 70
     0
 10
0.0
 20
0.0
 11
1.0
 21
1.0
 12
2.484460003418848
 22
35.99360415965426
 13
0.0
 23
0.0
 14
0.5
 24
0.5
 15
0.5
 25
0.5
 16
0.0
 26
0.0
 36
1.0
 17
0.0
 27
0.0
 37
0.0
 40
79.40957699584631
 41
1.701534170153416
 42
50.0
 43
0.0
 44
0.0
 50
0.0
 51
0.0
 71
    16
 72
  1000
 73
     1
 74
     3
 75
     0
 76
     0
 77
     0
 78
     0
  0
ENDTAB
  0
TABLE
  2
LTYPE
 70
     1
  0
LTYPE
  2
CONTINUOUS
 70
     0
  3
Solid line
 72
    65
 73
     0
 40
0.0
  0
ENDTAB
  0
TABLE
  2
LAYER
 70
     2
  0
LAYER
  2
0
 70
     0
 62
     7
  6
CONTINUOUS
  0
LAYER
  2
DEFPOINTS
 70
     0
 62
     7
  6
CONTINUOUS
  0
ENDTAB
  0
TABLE
  2
STYLE
 70
     2
  0
STYLE
  2
STANDARD
 70
     0
 40
0.0
 41
1.0
 50
0.0
 71
     0
 42
0.2
  3
IC-txt.shx
  4

  0
STYLE
  2
돋움
 70
     0
 40
0.0
 41
1.0
 50
0.0
 71
     0
 42
0.2
  3
Dotum.ttf
  4

  0
ENDTAB
  0
TABLE
  2
VIEW
 70
     0
  0
ENDTAB
  0
TABLE
  2
UCS
 70
     0
  0
ENDTAB
  0
ENDSEC
  0
SECTION
  2
BLOCKS
  0
BLOCK
  8
0
  2
*D1
 70
     1
 10
0.0
 20
0.0
 30
0.0
  0
POINT
  5
1D51
  8
DEFPOINTS
  6
BYBLOCK
 62
     3
 10
-3.0
 20
69.5
 30
0.0
  0
POINT
  5
1D52
  8
DEFPOINTS
  6
BYBLOCK
 62
     3
 10
3.0
 20
69.5
 30
0.0
  0
LINE
  5
1D53
  8
0
  6
BYBLOCK
 62
     3
 10
-3.0
 20
70.0
 30
0.0
 11
-3.0
 21
73.1020365607158
 31
0.0
  0
LINE
  5
1D54
  8
0
  6
BYBLOCK
 62
     3
 10
3.0
 20
70.0
 30
0.0
 11
3.0
 21
73.1020365607158
 31
0.0
  0
LINE
  5
1D55
  8
0
  6
BYBLOCK
 62
     3
 10
-3.0
 20
72.6020365607158
 30
0.0
 11
3.0
 21
72.6020365607158
 31
0.0
  0
SOLID
  5
1D56
  8
0
  6
BYBLOCK
 62
     3
 10
-3.0
 20
72.6020365607158
 30
0.0
 11
-1.5
 21
72.35203656071575
 31
0.0
 12
-1.5
 22
72.85203656071586
 32
0.0
 13
-1.5
 23
72.85203656071586
 33
0.0
  0
SOLID
  5
1D57
  8
0
  6
BYBLOCK
 62
     3
 10
3.0
 20
72.6020365607158
 30
0.0
 11
1.5
 21
72.35203656071575
 31
0.0
 12
1.5
 22
72.85203656071586
 32
0.0
 13
1.5
 23
72.85203656071586
 33
0.0
  0
INSERT
  5
1D58
  8
0
  6
BYBLOCK
 62
     3
  2
*X5
 10
0.0
 20
0.0
 30
0.0
  0
ENDBLK
  8
0
  0
BLOCK
  8
0
  2
*D2
 70
     1
 10
0.0
 20
0.0
 30
0.0
  0
POINT
  5
1D61
  8
DEFPOINTS
  6
BYBLOCK
 62
     3
 10
2.5
 20
70.0
 30
0.0
  0
POINT
  5
1D62
  8
DEFPOINTS
  6
BYBLOCK
 62
     3
 10
0.0
 20
-0.0000000000000036
 30
0.0
  0
LINE
  5
1D63
  8
0
  6
BYBLOCK
 62
     3
 10
3.0
 20
70.0
 30
0.0
 11
14.67245246229605
 21
70.0
 31
0.0
  0
LINE
  5
1D64
  8
0
  6
BYBLOCK
 62
     3
 10
0.5
 20
0.0
 30
0.0
 11
14.67245246229605
 21
0.0
 31
0.0
  0
LINE
  5
1D65
  8
0
  6
BYBLOCK
 62
     3
 10
14.17245246229605
 20
70.0
 30
0.0
 11
14.17245246229605
 21
0.0
 31
0.0
  0
SOLID
  5
1D66
  8
0
  6
BYBLOCK
 62
     3
 10
14.17245246229605
 20
70.0
 30
0.0
 11
13.922452462296
 21
68.5
 31
0.0
 12
14.4224524622961
 22
68.5
 32
0.0
 13
14.4224524622961
 23
68.5
 33
0.0
  0
SOLID
  5
1D67
  8
0
  6
BYBLOCK
 62
     3
 10
14.17245246229605
 20
0.0
 30
0.0
 11
13.922452462296
 21
1.5
 31
0.0
 12
14.4224524622961
 22
1.5
 32
0.0
 13
14.4224524622961
 23
1.5
 33
0.0
  0
TEXT
  5
1D68
  8
0
  6
CONTINUOUS
 62
     3
 10
14.07837637533953
 20
33.38095238095238
 30
0.0
 40
2.0
  1
70
 50
90.0
  7
돋움
  0
ENDBLK
  8
0
  0
BLOCK
  8
0
  2
*D3
 70
     1
 10
0.0
 20
0.0
 30
0.0
  0
POINT
  5
1D41
  8
DEFPOINTS
  6
BYBLOCK
 62
     3
 10
2.0
 20
7.999999999999995
 30
0.0
  0
POINT
  5
1D42
  8
DEFPOINTS
  6
BYBLOCK
 62
     3
 10
0.0
 20
-0.0000000000000036
 30
0.0
  0
LINE
  5
1D43
  8
0
  6
BYBLOCK
 62
     3
 10
2.5
 20
7.999999999999995
 30
0.0
 11
11.13462440002393
 21
7.999999999999995
 31
0.0
  0
LINE
  5
1D44
  8
0
  6
BYBLOCK
 62
     3
 10
0.5
 20
-0.0000000000000036
 30
0.0
 11
11.13462440002393
 21
-0.0000000000000036
 31
0.0
  0
LINE
  5
1D45
  8
0
  6
BYBLOCK
 62
     3
 10
10.63462440002393
 20
7.999999999999995
 30
0.0
 11
10.63462440002393
 21
-0.0000000000000036
 31
0.0
  0
SOLID
  5
1D46
  8
0
  6
BYBLOCK
 62
     3
 10
10.63462440002393
 20
7.999999999999995
 30
0.0
 11
10.38462440002388
 21
6.499999999999995
 31
0.0
 12
10.88462440002398
 22
6.499999999999995
 32
0.0
 13
10.88462440002398
 23
6.499999999999995
 33
0.0
  0
SOLID
  5
1D47
  8
0
  6
BYBLOCK
 62
     3
 10
10.63462440002393
 20
-0.0000000000000036
 30
0.0
 11
10.38462440002388
 21
1.499999999999996
 31
0.0
 12
10.88462440002398
 22
1.499999999999996
 32
0.0
 13
10.88462440002398
 23
1.499999999999996
 33
0.0
  0
TEXT
  5
1D48
  8
0
  6
CONTINUOUS
 62
     3
 10
10.54054831306741
 20
3.333333333333329
 30
0.0
 40
2.0
  1
8
 50
90.0
  7
돋움
  0
ENDBLK
  8
0
  0
BLOCK
  8
0
  2
*D4
 70
     1
 10
0.0
 20
0.0
 30
0.0
  0
LINE
  5
1CBA
  8
0
  6
BYBLOCK
 62
     3
 10
-3.089084273463409
 20
0.3545340017365773
 30
0.0
 11
-9.260233627864087
 21
-2.932659073603734
 31
0.0
  0
LINE
  5
1CBB
  8
0
  6
BYBLOCK
 62
     3
 10
-7.728594653703214
 20
-2.116799216607629
 30
0.0
 11
-7.728594653703214
 21
-2.116799216607629
 31
0.0
  0
SOLID
  5
1CBC
  8
0
  6
BYBLOCK
 62
     3
 10
-1.765191013407662
 20
1.059733715278044
 30
0.0
 11
-3.206617559053677
 21
0.5751828784125792
 31
0.0
 12
-2.971550987873141
 22
0.1338851250605755
 32
0.0
 13
-2.971550987873141
 23
0.1338851250605755
 33
0.0
  0
TEXT
  5
1CBD
  8
0
  6
CONTINUOUS
 62
     3
 10
-9.241899147688756
 20
-2.820920858272582
 30
0.0
 40
2.0
  1
R2
 50
28.04293943965435
  7
돋움
  0
POINT
  5
1CBE
  8
DEFPOINTS
  6
BYBLOCK
 62
     3
 10
0.0000000000000004
 20
2.0
 30
0.0
  0
POINT
  5
1CBF
  8
DEFPOINTS
  6
BYBLOCK
 62
     3
 10
-1.765191013407662
 20
1.059733715278044
 30
0.0
  0
ENDBLK
  8
0
  0
BLOCK
  8
0
  2
*X5
 70
     1
 10
0.0
 20
0.0
 30
0.0
  0
TEXT
  5
1D9B
  8
0
  6
CONTINUOUS
 62
     3
 10
-1.854490450352849
 20
72.80595197681403
 30
0.0
 40
2.0
  1
\U+2205
  0
TEXT
  5
1D9C
  8
0
  6
CONTINUOUS
 62
     3
 10
-0.0449666408290401
 20
72.80595197681403
 30
0.0
 40
2.0
  1
6
  0
ENDBLK
  8
0
  0
ENDSEC
  0
SECTION
  2
ENTITIES
  0
LINE
  5
394
  8
0
 10
-2.5
 20
70.0
 30
0.0
 11
2.5
 21
70.0
 31
0.0
  0
ARC
  5
397
  8
0
 10
0.0000000000000004
 20
2.0
 30
0.0
 40
2.0
 50
180.0
 51
0.0000000000008142
  0
LINE
  5
398
  8
0
 10
-3.0
 20
11.73205080756888
 30
0.0
 11
-3.0
 21
69.5
 31
0.0
  0
LINE
  5
399
  8
0
 10
3.0
 20
11.73205080756886
 30
0.0
 11
3.0
 21
69.5
 31
0.0
  0
LINE
  5
39A
  8
0
 10
2.0
 20
7.999999999999995
 30
0.0
 11
3.0
 21
11.73205080756886
 31
0.0
  0
LINE
  5
39B
  8
0
 10
-2.0
 20
7.999999999999996
 30
0.0
 11
-3.0
 21
11.73205080756888
 31
0.0
  0
LINE
  5
39C
  8
0
 10
-3.0
 20
69.5
 30
0.0
 11
3.0
 21
69.5
 31
0.0
  0
LINE
  5
39D
  8
0
 10
-3.0
 20
69.5
 30
0.0
 11
-2.5
 21
70.0
 31
0.0
  0
LINE
  5
39E
  8
0
 10
3.0
 20
69.5
 30
0.0
 11
2.5
 21
70.0
 31
0.0
  0
DIMENSION
  5
39F
  8
0
  2
*D1
 10
3.0
 20
72.6020365607158
 30
0.0
 11
-0.3306809265433256
 21
72.6020365607158
 31
0.0
 70
   160
  1
{\fArial|b0|i0|c0|p32;%%c\f\U+B3CB\U+C6C0|b0|i0|c129|p0;<>}
 13
-3.0
 23
69.5
 33
0.0
 14
3.0
 24
69.5
 34
0.0
  0
DIMENSION
  5
89F
  8
0
  2
*D2
 10
14.17245246229605
 20
-0.0000000000000044
 30
0.0
 11
13.07837637533953
 21
35.0
 31
0.0
 70
    32
 13
2.5
 23
70.0
 33
0.0
 14
0.0
 24
-0.0000000000000036
 34
0.0
 50
90.0
  0
DIMENSION
  5
13E8
  8
0
  2
*D3
 10
10.63462440002393
 20
-0.0000000000000036
 30
0.0
 11
10.63462440002393
 21
3.999999999999996
 31
0.0
 70
   160
 13
2.0
 23
7.999999999999995
 33
0.0
 14
0.0
 24
-0.0000000000000036
 34
0.0
 50
90.0
  0
LINE
  5
1B33
  8
0
 10
-2.0
 20
2.0
 30
0.0
 11
-2.0
 21
7.999999999999996
 31
0.0
  0
LINE
  5
1B50
  8
0
 10
2.0
 20
2.000000000000028
 30
0.0
 11
2.0
 21
7.999999999999995
 31
0.0
  0
DIMENSION
  5
1BC1
  8
0
  2
*D4
 10
0.0000000000000004
 20
2.0
 30
0.0
 11
-7.728594653703214
 21
-2.116799216607629
 31
0.0
 70
   164
 15
-1.765191013407662
 25
1.059733715278044
 35
0.0
 40
0.0
  0
ENDSEC
  0
EOF
