  0
SECTION
  2
HEADER
  9
$ACADVER
  1
AC1006
  9
$DWGCODEPAGE
  3
ansi_949
  9
$INSBASE
 10
0.0
 20
0.0
 30
0.0
  9
$EXTMIN
 10
-10.89255296784188
 20
-4.758867395918642
  9
$EXTMAX
 10
16.81446712711066
 20
84.91986739291225
  9
$LIMMIN
 10
0.0
 20
0.0
  9
$LIMMAX
 10
12.0
 20
9.0
  9
$ORTHOMODE
 70
     1
  9
$REGENMODE
 70
     1
  9
$FILLMODE
 70
     1
  9
$QTEXTMODE
 70
     0
  9
$MIRRTEXT
 70
     0
  9
$DRAGMODE
 70
     2
  9
$LTSCALE
 40
1.0
  9
$OSMODE
 70
    37
  9
$ATTMODE
 70
     1
  9
$TEXTSIZE
 40
0.2
  9
$TRACEWID
 40
0.05
  9
$TEXTSTYLE
  7
STANDARD
  9
$CLAYER
  8
0
  9
$CELTYPE
  6
BYLAYER
  9
$CECOLOR
 62
   256
  9
$DIMSCALE
 40
1.0
  9
$DIMASZ
 40
1.5
  9
$DIMEXO
 40
0.5
  9
$DIMDLI
 40
2.0
  9
$DIMRND
 40
0.0
  9
$DIMDLE
 40
0.0
  9
$DIMEXE
 40
0.5
  9
$DIMTP
 40
0.0
  9
$DIMTM
 40
0.0
  9
$DIMTXT
 40
2.0
  9
$DIMCEN
 40
0.0
  9
$DIMTSZ
 40
0.0
  9
$DIMTOL
 70
     0
  9
$DIMLIM
 70
     0
  9
$DIMTIH
 70
     0
  9
$DIMTOH
 70
     0
  9
$DIMSE1
 70
     0
  9
$DIMSE2
 70
     0
  9
$DIMTAD
 70
     1
  9
$DIMZIN
 70
     0
  9
$DIMBLK
  1

  9
$DIMASO
 70
     1
  9
$DIMSHO
 70
     1
  9
$DIMPOST
  1

  9
$DIMAPOST
  1

  9
$DIMALT
 70
     0
  9
$DIMALTD
 70
     2
  9
$DIMALTF
 40
25.4
  9
$DIMLFAC
 40
1.0
  9
$DIMTOFL
 70
     0
  9
$DIMTVP
 40
0.0
  9
$DIMTIX
 70
     0
  9
$DIMSOXD
 70
     0
  9
$DIMSAH
 70
     0
  9
$DIMBLK1
  1

  9
$DIMBLK2
  1

  9
$LUNITS
 70
     2
  9
$LUPREC
 70
     4
  9
$SKETCHINC
 40
0.1
  9
$FILLETRAD
 40
0.0
  9
$AUNITS
 70
     0
  9
$AUPREC
 70
     0
  9
$MENU
  1
.
  9
$ELEVATION
 40
0.0
  9
$THICKNESS
 40
0.0
  9
$LIMCHECK
 70
     0
  9
$CHAMFERA
 40
0.0
  9
$CHAMFERB
 40
0.0
  9
$SKPOLY
 70
     0
  9
$TDCREATE
 40
2453353.842125822
  9
$TDUPDATE
 40
2459503.46257544
  9
$TDINDWG
 40
0.0734813773
  9
$TDUSRTIMER
 40
0.0734468171
  9
$USRTIMER
 70
     1
  9
$ANGBASE
 50
0.0
  9
$ANGDIR
 70
     0
  9
$PDMODE
 70
     0
  9
$PDSIZE
 40
0.0
  9
$PLINEWID
 40
0.0
  9
$COORDS
 70
     1
  9
$SPLFRAME
 70
     0
  9
$SPLINETYPE
 70
     6
  9
$SPLINESEGS
 70
     8
  9
$ATTDIA
 70
     0
  9
$ATTREQ
 70
     1
  9
$HANDLING
 70
     1
  9
$HANDSEED
  5
1F89
  9
$SURFTAB1
 70
     6
  9
$SURFTAB2
 70
     6
  9
$SURFTYPE
 70
     6
  9
$SURFU
 70
     6
  9
$SURFV
 70
     6
  9
$UCSNAME
  2

  9
$UCSORG
 10
0.0
 20
0.0
 30
0.0
  9
$UCSXDIR
 10
1.0
 20
0.0
 30
0.0
  9
$UCSYDIR
 10
0.0
 20
1.0
 30
0.0
  9
$USERI1
 70
     0
  9
$USERI2
 70
     0
  9
$USERI3
 70
     0
  9
$USERI4
 70
     0
  9
$USERI5
 70
     0
  9
$USERR1
 40
0.0
  9
$USERR2
 40
0.0
  9
$USERR3
 40
0.0
  9
$USERR4
 40
0.0
  9
$USERR5
 40
0.0
  9
$WORLDVIEW
 70
     1
  0
ENDSEC
  0
SECTION
  2
TABLES
  0
TABLE
  2
VPORT
 70
     1
  0
VPORT
  2
*ACTIVE
 70
     0
 10
0.0
 20
0.0
 11
1.0
 21
1.0
 12
2.960957079634389
 22
40.0804999984968
 13
0.0
 23
0.0
 14
0.5
 24
0.5
 15
0.5
 25
0.5
 16
0.0
 26
0.0
 36
1.0
 17
0.0
 27
0.0
 37
0.0
 40
91.4723094846075
 41
1.701534170153417
 42
50.0
 43
0.0
 44
0.0
 50
0.0
 51
0.0
 71
    16
 72
  1000
 73
     1
 74
     3
 75
     0
 76
     0
 77
     0
 78
     0
  0
ENDTAB
  0
TABLE
  2
LTYPE
 70
     1
  0
LTYPE
  2
CONTINUOUS
 70
     0
  3
Solid line
 72
    65
 73
     0
 40
0.0
  0
ENDTAB
  0
TABLE
  2
LAYER
 70
     2
  0
LAYER
  2
0
 70
     0
 62
     7
  6
CONTINUOUS
  0
LAYER
  2
DEFPOINTS
 70
     0
 62
     7
  6
CONTINUOUS
  0
ENDTAB
  0
TABLE
  2
STYLE
 70
     2
  0
STYLE
  2
STANDARD
 70
     0
 40
0.0
 41
1.0
 50
0.0
 71
     0
 42
0.2
  3
IC-txt.shx
  4

  0
STYLE
  2
돋움
 70
     0
 40
0.0
 41
1.0
 50
0.0
 71
     0
 42
0.2
  3
Dotum.ttf
  4

  0
ENDTAB
  0
TABLE
  2
VIEW
 70
     0
  0
ENDTAB
  0
TABLE
  2
UCS
 70
     0
  0
ENDTAB
  0
ENDSEC
  0
SECTION
  2
BLOCKS
  0
BLOCK
  8
0
  2
*D1
 70
     1
 10
0.0
 20
0.0
 30
0.0
  0
POINT
  5
1F3B
  8
DEFPOINTS
  6
BYBLOCK
 62
     3
 10
-3.0
 20
79.5
 30
0.0
  0
POINT
  5
1F3C
  8
DEFPOINTS
  6
BYBLOCK
 62
     3
 10
3.0
 20
79.5
 30
0.0
  0
LINE
  5
1F3D
  8
0
  6
BYBLOCK
 62
     3
 10
-3.0
 20
80.0
 30
0.0
 11
-3.0
 21
83.1020365607158
 31
0.0
  0
LINE
  5
1F3E
  8
0
  6
BYBLOCK
 62
     3
 10
3.0
 20
80.0
 30
0.0
 11
3.0
 21
83.1020365607158
 31
0.0
  0
LINE
  5
1F3F
  8
0
  6
BYBLOCK
 62
     3
 10
-3.0
 20
82.6020365607158
 30
0.0
 11
3.0
 21
82.6020365607158
 31
0.0
  0
SOLID
  5
1F40
  8
0
  6
BYBLOCK
 62
     3
 10
-3.0
 20
82.6020365607158
 30
0.0
 11
-1.5
 21
82.35203656071575
 31
0.0
 12
-1.5
 22
82.85203656071586
 32
0.0
 13
-1.5
 23
82.85203656071586
 33
0.0
  0
SOLID
  5
1F41
  8
0
  6
BYBLOCK
 62
     3
 10
3.0
 20
82.6020365607158
 30
0.0
 11
1.5
 21
82.35203656071575
 31
0.0
 12
1.5
 22
82.85203656071586
 32
0.0
 13
1.5
 23
82.85203656071586
 33
0.0
  0
INSERT
  5
1F42
  8
0
  6
BYBLOCK
 62
     3
  2
*X5
 10
0.0
 20
0.0
 30
0.0
  0
ENDBLK
  8
0
  0
BLOCK
  8
0
  2
*D2
 70
     1
 10
0.0
 20
0.0
 30
0.0
  0
POINT
  5
1F4B
  8
DEFPOINTS
  6
BYBLOCK
 62
     3
 10
2.5
 20
80.0
 30
0.0
  0
POINT
  5
1F4C
  8
DEFPOINTS
  6
BYBLOCK
 62
     3
 10
0.0
 20
-0.0000000000000036
 30
0.0
  0
LINE
  5
1F4D
  8
0
  6
BYBLOCK
 62
     3
 10
3.0
 20
80.0
 30
0.0
 11
16.81446712711066
 21
80.0
 31
0.0
  0
LINE
  5
1F4E
  8
0
  6
BYBLOCK
 62
     3
 10
0.5
 20
0.0
 30
0.0
 11
16.81446712711066
 21
0.0
 31
0.0
  0
LINE
  5
1F4F
  8
0
  6
BYBLOCK
 62
     3
 10
16.31446712711066
 20
80.0
 30
0.0
 11
16.31446712711066
 21
0.0
 31
0.0
  0
SOLID
  5
1F50
  8
0
  6
BYBLOCK
 62
     3
 10
16.31446712711066
 20
80.0
 30
0.0
 11
16.06446712711061
 21
78.5
 31
0.0
 12
16.56446712711071
 22
78.5
 32
0.0
 13
16.56446712711071
 23
78.5
 33
0.0
  0
SOLID
  5
1F51
  8
0
  6
BYBLOCK
 62
     3
 10
16.31446712711066
 20
0.0
 30
0.0
 11
16.06446712711061
 21
1.5
 31
0.0
 12
16.56446712711071
 22
1.5
 32
0.0
 13
16.56446712711071
 23
1.5
 33
0.0
  0
TEXT
  5
1F52
  8
0
  6
CONTINUOUS
 62
     3
 10
16.22039104015413
 20
38.38095238095238
 30
0.0
 40
2.0
  1
80
 50
90.0
  7
돋움
  0
ENDBLK
  8
0
  0
BLOCK
  8
0
  2
*D3
 70
     1
 10
0.0
 20
0.0
 30
0.0
  0
POINT
  5
1F2B
  8
DEFPOINTS
  6
BYBLOCK
 62
     3
 10
2.5
 20
11.99999999999999
 30
0.0
  0
POINT
  5
1F2C
  8
DEFPOINTS
  6
BYBLOCK
 62
     3
 10
0.0
 20
-0.0000000000000036
 30
0.0
  0
LINE
  5
1F2D
  8
0
  6
BYBLOCK
 62
     3
 10
3.0
 20
11.99999999999999
 30
0.0
 11
13.27663906483854
 21
11.99999999999999
 31
0.0
  0
LINE
  5
1F2E
  8
0
  6
BYBLOCK
 62
     3
 10
0.5
 20
-0.0000000000000036
 30
0.0
 11
13.27663906483854
 21
-0.0000000000000036
 31
0.0
  0
LINE
  5
1F2F
  8
0
  6
BYBLOCK
 62
     3
 10
12.77663906483854
 20
11.99999999999999
 30
0.0
 11
12.77663906483854
 21
-0.0000000000000036
 31
0.0
  0
SOLID
  5
1F30
  8
0
  6
BYBLOCK
 62
     3
 10
12.77663906483854
 20
11.99999999999999
 30
0.0
 11
12.52663906483849
 21
10.49999999999999
 31
0.0
 12
13.02663906483859
 22
10.49999999999999
 32
0.0
 13
13.02663906483859
 23
10.49999999999999
 33
0.0
  0
SOLID
  5
1F31
  8
0
  6
BYBLOCK
 62
     3
 10
12.77663906483854
 20
-0.0000000000000036
 30
0.0
 11
12.52663906483849
 21
1.499999999999996
 31
0.0
 12
13.02663906483859
 22
1.499999999999996
 32
0.0
 13
13.02663906483859
 23
1.499999999999996
 33
0.0
  0
TEXT
  5
1F32
  8
0
  6
CONTINUOUS
 62
     3
 10
12.68392167353419
 20
3.571428571428567
 30
0.0
 40
2.0
  1
12
 50
90.0
  7
돋움
  0
ENDBLK
  8
0
  0
BLOCK
  8
0
  2
*D4
 70
     1
 10
0.0
 20
0.0
 30
0.0
  0
LINE
  5
1D5C
  8
0
  6
BYBLOCK
 62
     3
 10
-3.256410091073866
 20
0.1771153023121675
 30
0.0
 11
-10.17607505932832
 21
-4.758867395918642
 31
0.0
  0
LINE
  5
1D5D
  8
0
  6
BYBLOCK
 62
     3
 10
-7.671559439554849
 20
-2.97232920030292
 30
0.0
 11
-7.671559439554849
 21
-2.97232920030292
 31
0.0
  0
SOLID
  5
1D5E
  8
0
  6
BYBLOCK
 62
     3
 10
-2.035256306921166
 20
1.048197063945104
 30
0.0
 11
-3.401590384679384
 21
0.3806409330043248
 31
0.0
 12
-3.111229797468347
 22
-0.0264103283799899
 32
0.0
 13
-3.111229797468347
 23
-0.0264103283799899
 33
0.0
  0
TEXT
  5
1D5F
  8
0
  6
CONTINUOUS
 62
     3
 10
-10.24366548715522
 20
-4.696530275036007
 30
0.0
 40
2.0
  1
R2.5
 50
35.5012822057281
  7
돋움
  0
POINT
  5
1D60
  8
DEFPOINTS
  6
BYBLOCK
 62
     3
 10
0.0000000000000005
 20
2.5
 30
0.0
  0
POINT
  5
1D61
  8
DEFPOINTS
  6
BYBLOCK
 62
     3
 10
-2.035256306921166
 20
1.048197063945104
 30
0.0
  0
ENDBLK
  8
0
  0
BLOCK
  8
0
  2
*X5
 70
     1
 10
0.0
 20
0.0
 30
0.0
  0
TEXT
  5
1F85
  8
0
  6
CONTINUOUS
 62
     3
 10
-1.854490450352849
 20
82.80595197681403
 30
0.0
 40
2.0
  1
\U+2205
  0
TEXT
  5
1F86
  8
0
  6
CONTINUOUS
 62
     3
 10
-0.0449666408290401
 20
82.80595197681403
 30
0.0
 40
2.0
  1
6
  0
ENDBLK
  8
0
  0
ENDSEC
  0
SECTION
  2
ENTITIES
  0
LINE
  5
394
  8
0
 10
-2.5
 20
80.0
 30
0.0
 11
2.5
 21
80.0
 31
0.0
  0
ARC
  5
397
  8
0
 10
0.0000000000000005
 20
2.5
 30
0.0
 40
2.5
 50
180.0
 51
0.0000000000008142
  0
LINE
  5
398
  8
0
 10
-3.0
 20
13.86602540378444
 30
0.0
 11
-3.0
 21
79.5
 31
0.0
  0
LINE
  5
399
  8
0
 10
3.0
 20
13.86602540378443
 30
0.0
 11
3.0
 21
79.5
 31
0.0
  0
LINE
  5
39A
  8
0
 10
2.5
 20
11.99999999999999
 30
0.0
 11
3.0
 21
13.86602540378443
 31
0.0
  0
LINE
  5
39B
  8
0
 10
-2.5
 20
12.0
 30
0.0
 11
-3.0
 21
13.86602540378444
 31
0.0
  0
LINE
  5
39C
  8
0
 10
-3.0
 20
79.5
 30
0.0
 11
3.0
 21
79.5
 31
0.0
  0
LINE
  5
39D
  8
0
 10
-3.0
 20
79.5
 30
0.0
 11
-2.5
 21
80.0
 31
0.0
  0
LINE
  5
39E
  8
0
 10
3.0
 20
79.5
 30
0.0
 11
2.5
 21
80.0
 31
0.0
  0
DIMENSION
  5
39F
  8
0
  2
*D1
 10
3.0
 20
82.6020365607158
 30
0.0
 11
-0.3306809265433256
 21
82.6020365607158
 31
0.0
 70
   160
  1
{\fArial|b0|i0|c0|p32;%%c\f\U+B3CB\U+C6C0|b0|i0|c129|p0;<>}
 13
-3.0
 23
79.5
 33
0.0
 14
3.0
 24
79.5
 34
0.0
  0
DIMENSION
  5
89F
  8
0
  2
*D2
 10
16.31446712711066
 20
-0.0000000000000046
 30
0.0
 11
15.22039104015414
 21
40.0
 31
0.0
 70
    32
 13
2.5
 23
80.0
 33
0.0
 14
0.0
 24
-0.0000000000000036
 34
0.0
 50
90.0
  0
DIMENSION
  5
13E8
  8
0
  2
*D3
 10
12.77663906483854
 20
-0.0000000000000036
 30
0.0
 11
12.77663906483854
 21
4.999999999999996
 31
0.0
 70
   160
 13
2.5
 23
11.99999999999999
 33
0.0
 14
0.0
 24
-0.0000000000000036
 34
0.0
 50
90.0
  0
LINE
  5
1D04
  8
0
 10
-2.5
 20
2.5
 30
0.0
 11
-2.5
 21
12.0
 31
0.0
  0
LINE
  5
1D25
  8
0
 10
2.5
 20
2.500000000000035
 30
0.0
 11
2.5
 21
11.99999999999999
 31
0.0
  0
DIMENSION
  5
1D48
  8
0
  2
*D4
 10
0.0000000000000005
 20
2.5
 30
0.0
 11
-7.671559439554849
 21
-2.97232920030292
 31
0.0
 70
   164
 15
-2.035256306921166
 25
1.048197063945104
 35
0.0
 40
0.0
  0
ENDSEC
  0
EOF
