  0
SECTION
  2
HEADER
  9
$ACADVER
  1
AC1006
  9
$DWGCODEPAGE
  3
ansi_949
  9
$INSBASE
 10
0.0
 20
0.0
 30
0.0
  9
$EXTMIN
 10
-10.78669190080201
 20
-1.677777023715167
  9
$EXTMAX
 10
17.01866202202752
 20
84.91986739291225
  9
$LIMMIN
 10
0.0
 20
0.0
  9
$LIMMAX
 10
12.0
 20
9.0
  9
$ORTHOMODE
 70
     1
  9
$REGENMODE
 70
     1
  9
$FILLMODE
 70
     1
  9
$QTEXTMODE
 70
     0
  9
$MIRRTEXT
 70
     0
  9
$DRAGMODE
 70
     2
  9
$LTSCALE
 40
1.0
  9
$OSMODE
 70
    37
  9
$ATTMODE
 70
     1
  9
$TEXTSIZE
 40
0.2
  9
$TRACEWID
 40
0.05
  9
$TEXTSTYLE
  7
STANDARD
  9
$CLAYER
  8
0
  9
$CELTYPE
  6
BYLAYER
  9
$CECOLOR
 62
   256
  9
$DIMSCALE
 40
1.0
  9
$DIMASZ
 40
1.5
  9
$DIMEXO
 40
0.5
  9
$DIMDLI
 40
2.0
  9
$DIMRND
 40
0.0
  9
$DIMDLE
 40
0.0
  9
$DIMEXE
 40
0.5
  9
$DIMTP
 40
0.0
  9
$DIMTM
 40
0.0
  9
$DIMTXT
 40
2.0
  9
$DIMCEN
 40
0.0
  9
$DIMTSZ
 40
0.0
  9
$DIMTOL
 70
     0
  9
$DIMLIM
 70
     0
  9
$DIMTIH
 70
     0
  9
$DIMTOH
 70
     0
  9
$DIMSE1
 70
     0
  9
$DIMSE2
 70
     0
  9
$DIMTAD
 70
     1
  9
$DIMZIN
 70
     0
  9
$DIMBLK
  1

  9
$DIMASO
 70
     1
  9
$DIMSHO
 70
     1
  9
$DIMPOST
  1

  9
$DIMAPOST
  1

  9
$DIMALT
 70
     0
  9
$DIMALTD
 70
     2
  9
$DIMALTF
 40
25.4
  9
$DIMLFAC
 40
1.0
  9
$DIMTOFL
 70
     0
  9
$DIMTVP
 40
0.0
  9
$DIMTIX
 70
     0
  9
$DIMSOXD
 70
     0
  9
$DIMSAH
 70
     0
  9
$DIMBLK1
  1

  9
$DIMBLK2
  1

  9
$LUNITS
 70
     2
  9
$LUPREC
 70
     4
  9
$SKETCHINC
 40
0.1
  9
$FILLETRAD
 40
0.0
  9
$AUNITS
 70
     0
  9
$AUPREC
 70
     0
  9
$MENU
  1
.
  9
$ELEVATION
 40
0.0
  9
$THICKNESS
 40
0.0
  9
$LIMCHECK
 70
     0
  9
$CHAMFERA
 40
0.0
  9
$CHAMFERB
 40
0.0
  9
$SKPOLY
 70
     0
  9
$TDCREATE
 40
2453353.842125822
  9
$TDUPDATE
 40
2459524.176940035
  9
$TDINDWG
 40
0.0761897338
  9
$TDUSRTIMER
 40
0.0761551157
  9
$USRTIMER
 70
     1
  9
$ANGBASE
 50
0.0
  9
$ANGDIR
 70
     0
  9
$PDMODE
 70
     0
  9
$PDSIZE
 40
0.0
  9
$PLINEWID
 40
0.0
  9
$COORDS
 70
     1
  9
$SPLFRAME
 70
     0
  9
$SPLINETYPE
 70
     6
  9
$SPLINESEGS
 70
     8
  9
$ATTDIA
 70
     0
  9
$ATTREQ
 70
     1
  9
$HANDLING
 70
     1
  9
$HANDSEED
  5
1FDE
  9
$SURFTAB1
 70
     6
  9
$SURFTAB2
 70
     6
  9
$SURFTYPE
 70
     6
  9
$SURFU
 70
     6
  9
$SURFV
 70
     6
  9
$UCSNAME
  2

  9
$UCSORG
 10
0.0
 20
0.0
 30
0.0
  9
$UCSXDIR
 10
1.0
 20
0.0
 30
0.0
  9
$UCSYDIR
 10
0.0
 20
1.0
 30
0.0
  9
$USERI1
 70
     0
  9
$USERI2
 70
     0
  9
$USERI3
 70
     0
  9
$USERI4
 70
     0
  9
$USERI5
 70
     0
  9
$USERR1
 40
0.0
  9
$USERR2
 40
0.0
  9
$USERR3
 40
0.0
  9
$USERR4
 40
0.0
  9
$USERR5
 40
0.0
  9
$WORLDVIEW
 70
     1
  0
ENDSEC
  0
SECTION
  2
TABLES
  0
TABLE
  2
VPORT
 70
     1
  0
VPORT
  2
*ACTIVE
 70
     0
 10
0.0
 20
0.0
 11
1.0
 21
1.0
 12
3.115985060612756
 22
41.62104518459854
 13
0.0
 23
0.0
 14
0.5
 24
0.5
 15
0.5
 25
0.5
 16
0.0
 26
0.0
 36
1.0
 17
0.0
 27
0.0
 37
0.0
 40
88.32959730495998
 41
1.701534170153417
 42
50.0
 43
0.0
 44
0.0
 50
0.0
 51
0.0
 71
    16
 72
  1000
 73
     1
 74
     3
 75
     0
 76
     0
 77
     0
 78
     0
  0
ENDTAB
  0
TABLE
  2
LTYPE
 70
     1
  0
LTYPE
  2
CONTINUOUS
 70
     0
  3
Solid line
 72
    65
 73
     0
 40
0.0
  0
ENDTAB
  0
TABLE
  2
LAYER
 70
     2
  0
LAYER
  2
0
 70
     0
 62
     7
  6
CONTINUOUS
  0
LAYER
  2
DEFPOINTS
 70
     0
 62
     7
  6
CONTINUOUS
  0
ENDTAB
  0
TABLE
  2
STYLE
 70
     2
  0
STYLE
  2
STANDARD
 70
     0
 40
0.0
 41
1.0
 50
0.0
 71
     0
 42
0.2
  3
IC-txt.shx
  4

  0
STYLE
  2
돋움
 70
     0
 40
0.0
 41
1.0
 50
0.0
 71
     0
 42
0.2
  3
Dotum.ttf
  4

  0
ENDTAB
  0
TABLE
  2
VIEW
 70
     0
  0
ENDTAB
  0
TABLE
  2
UCS
 70
     0
  0
ENDTAB
  0
ENDSEC
  0
SECTION
  2
BLOCKS
  0
BLOCK
  8
0
  2
*D1
 70
     1
 10
0.0
 20
0.0
 30
0.0
  0
POINT
  5
1F90
  8
DEFPOINTS
  6
BYBLOCK
 62
     3
 10
-3.0
 20
79.5
 30
0.0
  0
POINT
  5
1F91
  8
DEFPOINTS
  6
BYBLOCK
 62
     3
 10
3.0
 20
79.5
 30
0.0
  0
LINE
  5
1F92
  8
0
  6
BYBLOCK
 62
     3
 10
-3.0
 20
80.0
 30
0.0
 11
-3.0
 21
83.1020365607158
 31
0.0
  0
LINE
  5
1F93
  8
0
  6
BYBLOCK
 62
     3
 10
3.0
 20
80.0
 30
0.0
 11
3.0
 21
83.1020365607158
 31
0.0
  0
LINE
  5
1F94
  8
0
  6
BYBLOCK
 62
     3
 10
-3.0
 20
82.6020365607158
 30
0.0
 11
3.0
 21
82.6020365607158
 31
0.0
  0
SOLID
  5
1F95
  8
0
  6
BYBLOCK
 62
     3
 10
-3.0
 20
82.6020365607158
 30
0.0
 11
-1.5
 21
82.35203656071575
 31
0.0
 12
-1.5
 22
82.85203656071586
 32
0.0
 13
-1.5
 23
82.85203656071586
 33
0.0
  0
SOLID
  5
1F96
  8
0
  6
BYBLOCK
 62
     3
 10
3.0
 20
82.6020365607158
 30
0.0
 11
1.5
 21
82.35203656071575
 31
0.0
 12
1.5
 22
82.85203656071586
 32
0.0
 13
1.5
 23
82.85203656071586
 33
0.0
  0
INSERT
  5
1F97
  8
0
  6
BYBLOCK
 62
     3
  2
*X5
 10
0.0
 20
0.0
 30
0.0
  0
ENDBLK
  8
0
  0
BLOCK
  8
0
  2
*D2
 70
     1
 10
0.0
 20
0.0
 30
0.0
  0
POINT
  5
1FA0
  8
DEFPOINTS
  6
BYBLOCK
 62
     3
 10
2.5
 20
80.0
 30
0.0
  0
POINT
  5
1FA1
  8
DEFPOINTS
  6
BYBLOCK
 62
     3
 10
0.0
 20
-0.0000000000000036
 30
0.0
  0
LINE
  5
1FA2
  8
0
  6
BYBLOCK
 62
     3
 10
3.0
 20
80.0
 30
0.0
 11
17.01866202202752
 21
80.0
 31
0.0
  0
LINE
  5
1FA3
  8
0
  6
BYBLOCK
 62
     3
 10
0.5
 20
0.0
 30
0.0
 11
17.01866202202752
 21
0.0
 31
0.0
  0
LINE
  5
1FA4
  8
0
  6
BYBLOCK
 62
     3
 10
16.51866202202752
 20
80.0
 30
0.0
 11
16.51866202202752
 21
0.0
 31
0.0
  0
SOLID
  5
1FA5
  8
0
  6
BYBLOCK
 62
     3
 10
16.51866202202752
 20
80.0
 30
0.0
 11
16.26866202202747
 21
78.5
 31
0.0
 12
16.76866202202757
 22
78.5
 32
0.0
 13
16.76866202202757
 23
78.5
 33
0.0
  0
SOLID
  5
1FA6
  8
0
  6
BYBLOCK
 62
     3
 10
16.51866202202752
 20
0.0
 30
0.0
 11
16.26866202202747
 21
1.5
 31
0.0
 12
16.76866202202757
 22
1.5
 32
0.0
 13
16.76866202202757
 23
1.5
 33
0.0
  0
TEXT
  5
1FA7
  8
0
  6
CONTINUOUS
 62
     3
 10
16.424585935071
 20
38.38095238095238
 30
0.0
 40
2.0
  1
80
 50
90.0
  7
돋움
  0
ENDBLK
  8
0
  0
BLOCK
  8
0
  2
*D3
 70
     1
 10
0.0
 20
0.0
 30
0.0
  0
POINT
  5
1F80
  8
DEFPOINTS
  6
BYBLOCK
 62
     3
 10
3.0
 20
11.99999999999999
 30
0.0
  0
POINT
  5
1F81
  8
DEFPOINTS
  6
BYBLOCK
 62
     3
 10
0.0
 20
-0.0000000000000036
 30
0.0
  0
LINE
  5
1F82
  8
0
  6
BYBLOCK
 62
     3
 10
3.5
 20
11.99999999999999
 30
0.0
 11
13.26539306209089
 21
11.99999999999999
 31
0.0
  0
LINE
  5
1F83
  8
0
  6
BYBLOCK
 62
     3
 10
0.5
 20
-0.0000000000000036
 30
0.0
 11
13.26539306209089
 21
-0.0000000000000036
 31
0.0
  0
LINE
  5
1F84
  8
0
  6
BYBLOCK
 62
     3
 10
12.76539306209089
 20
11.99999999999999
 30
0.0
 11
12.76539306209089
 21
-0.0000000000000036
 31
0.0
  0
SOLID
  5
1F85
  8
0
  6
BYBLOCK
 62
     3
 10
12.76539306209089
 20
11.99999999999999
 30
0.0
 11
12.51539306209084
 21
10.49999999999999
 31
0.0
 12
13.01539306209094
 22
10.49999999999999
 32
0.0
 13
13.01539306209094
 23
10.49999999999999
 33
0.0
  0
SOLID
  5
1F86
  8
0
  6
BYBLOCK
 62
     3
 10
12.76539306209089
 20
-0.0000000000000036
 30
0.0
 11
12.51539306209084
 21
1.499999999999996
 31
0.0
 12
13.01539306209094
 22
1.499999999999996
 32
0.0
 13
13.01539306209094
 23
1.499999999999996
 33
0.0
  0
TEXT
  5
1F87
  8
0
  6
CONTINUOUS
 62
     3
 10
12.67267567078654
 20
3.571428571428566
 30
0.0
 40
2.0
  1
12
 50
90.0
  7
돋움
  0
ENDBLK
  8
0
  0
BLOCK
  8
0
  2
*D4
 70
     1
 10
0.0
 20
0.0
 30
0.0
  0
LINE
  5
1EC1
  8
0
  6
BYBLOCK
 62
     3
 10
-4.110143964509735
 20
1.167865564156333
 30
0.0
 11
-10.4939553698699
 21
-1.677777023715167
 31
0.0
  0
LINE
  5
1EC2
  8
0
  6
BYBLOCK
 62
     3
 10
-8.91140102527407
 20
-0.9723388842328999
 30
0.0
 11
-8.91140102527407
 21
-0.9723388842328999
 31
0.0
  0
SOLID
  5
1EC3
  8
0
  6
BYBLOCK
 62
     3
 10
-2.740095976339823
 20
1.778577042770888
 30
0.0
 11
-4.211929210945515
 21
1.396206895518031
 31
0.0
 12
-4.008358718073956
 22
0.9395242327946354
 32
0.0
 13
-4.008358718073956
 23
0.9395242327946354
 33
0.0
  0
TEXT
  5
1EC4
  8
0
  6
CONTINUOUS
 62
     3
 10
-10.47031925640196
 20
-1.568704314514433
 30
0.0
 40
2.0
  1
R3
 50
24.02536207914024
  7
돋움
  0
POINT
  5
1EC5
  8
DEFPOINTS
  6
BYBLOCK
 62
     3
 10
0.0000000000000006
 20
3.0
 30
0.0
  0
POINT
  5
1EC6
  8
DEFPOINTS
  6
BYBLOCK
 62
     3
 10
-2.740095976339823
 20
1.778577042770888
 30
0.0
  0
ENDBLK
  8
0
  0
BLOCK
  8
0
  2
*X5
 70
     1
 10
0.0
 20
0.0
 30
0.0
  0
TEXT
  5
1FDA
  8
0
  6
CONTINUOUS
 62
     3
 10
-1.854490450352849
 20
82.80595197681403
 30
0.0
 40
2.0
  1
\U+2205
  0
TEXT
  5
1FDB
  8
0
  6
CONTINUOUS
 62
     3
 10
-0.0449666408290401
 20
82.80595197681403
 30
0.0
 40
2.0
  1
6
  0
ENDBLK
  8
0
  0
ENDSEC
  0
SECTION
  2
ENTITIES
  0
LINE
  5
394
  8
0
 10
-2.5
 20
80.0
 30
0.0
 11
2.5
 21
80.0
 31
0.0
  0
ARC
  5
397
  8
0
 10
0.0000000000000006
 20
3.0
 30
0.0
 40
3.0
 50
180.0
 51
0.0000000000008142
  0
LINE
  5
39C
  8
0
 10
-3.0
 20
79.5
 30
0.0
 11
3.0
 21
79.5
 31
0.0
  0
LINE
  5
39D
  8
0
 10
-3.0
 20
79.5
 30
0.0
 11
-2.5
 21
80.0
 31
0.0
  0
LINE
  5
39E
  8
0
 10
3.0
 20
79.5
 30
0.0
 11
2.5
 21
80.0
 31
0.0
  0
DIMENSION
  5
39F
  8
0
  2
*D1
 10
3.0
 20
82.6020365607158
 30
0.0
 11
-0.3306809265433256
 21
82.6020365607158
 31
0.0
 70
   160
  1
{\fArial|b0|i0|c0|p32;%%c\f\U+B3CB\U+C6C0|b0|i0|c129|p0;<>}
 13
-3.0
 23
79.5
 33
0.0
 14
3.0
 24
79.5
 34
0.0
  0
DIMENSION
  5
89F
  8
0
  2
*D2
 10
16.51866202202752
 20
-0.0000000000000046
 30
0.0
 11
15.424585935071
 21
40.0
 31
0.0
 70
    32
 13
2.5
 23
80.0
 33
0.0
 14
0.0
 24
-0.0000000000000036
 34
0.0
 50
90.0
  0
DIMENSION
  5
13E8
  8
0
  2
*D3
 10
12.76539306209089
 20
-0.0000000000000036
 30
0.0
 11
12.76539306209089
 21
4.999999999999995
 31
0.0
 70
   160
 13
3.0
 23
11.99999999999999
 33
0.0
 14
0.0
 24
-0.0000000000000036
 34
0.0
 50
90.0
  0
LINE
  5
1C50
  8
0
 10
-3.0
 20
3.0
 30
0.0
 11
-3.0
 21
79.5
 31
0.0
  0
LINE
  5
1C71
  8
0
 10
3.0
 20
3.000000000000042
 30
0.0
 11
3.0
 21
79.5
 31
0.0
  0
DIMENSION
  5
1D3E
  8
0
  2
*D4
 10
0.0000000000000006
 20
3.0
 30
0.0
 11
-8.91140102527407
 21
-0.9723388842328999
 31
0.0
 70
   164
 15
-2.740095976339823
 25
1.778577042770888
 35
0.0
 40
0.0
  0
ENDSEC
  0
EOF
