  0
SECTION
  2
HEADER
  9
$ACADVER
  1
AC1006
  9
$DWGCODEPAGE
  3
ansi_949
  9
$INSBASE
 10
0.0
 20
0.0
 30
0.0
  9
$EXTMIN
 10
-11.50858676588711
 20
-1.783214914557849
  9
$EXTMAX
 10
19.81446712711066
 20
104.9198673929123
  9
$LIMMIN
 10
0.0
 20
0.0
  9
$LIMMAX
 10
12.0
 20
9.0
  9
$ORTHOMODE
 70
     1
  9
$REGENMODE
 70
     1
  9
$FILLMODE
 70
     1
  9
$QTEXTMODE
 70
     0
  9
$MIRRTEXT
 70
     0
  9
$DRAGMODE
 70
     2
  9
$LTSCALE
 40
1.0
  9
$OSMODE
 70
    37
  9
$ATTMODE
 70
     1
  9
$TEXTSIZE
 40
0.2
  9
$TRACEWID
 40
0.05
  9
$TEXTSTYLE
  7
STANDARD
  9
$CLAYER
  8
0
  9
$CELTYPE
  6
BYLAYER
  9
$CECOLOR
 62
   256
  9
$DIMSCALE
 40
1.0
  9
$DIMASZ
 40
1.5
  9
$DIMEXO
 40
0.5
  9
$DIMDLI
 40
2.0
  9
$DIMRND
 40
0.0
  9
$DIMDLE
 40
0.0
  9
$DIMEXE
 40
0.5
  9
$DIMTP
 40
0.0
  9
$DIMTM
 40
0.0
  9
$DIMTXT
 40
2.0
  9
$DIMCEN
 40
0.0
  9
$DIMTSZ
 40
0.0
  9
$DIMTOL
 70
     0
  9
$DIMLIM
 70
     0
  9
$DIMTIH
 70
     0
  9
$DIMTOH
 70
     0
  9
$DIMSE1
 70
     0
  9
$DIMSE2
 70
     0
  9
$DIMTAD
 70
     1
  9
$DIMZIN
 70
     0
  9
$DIMBLK
  1

  9
$DIMASO
 70
     1
  9
$DIMSHO
 70
     1
  9
$DIMPOST
  1

  9
$DIMAPOST
  1

  9
$DIMALT
 70
     0
  9
$DIMALTD
 70
     2
  9
$DIMALTF
 40
25.4
  9
$DIMLFAC
 40
1.0
  9
$DIMTOFL
 70
     0
  9
$DIMTVP
 40
0.0
  9
$DIMTIX
 70
     0
  9
$DIMSOXD
 70
     0
  9
$DIMSAH
 70
     0
  9
$DIMBLK1
  1

  9
$DIMBLK2
  1

  9
$LUNITS
 70
     2
  9
$LUPREC
 70
     4
  9
$SKETCHINC
 40
0.1
  9
$FILLETRAD
 40
0.0
  9
$AUNITS
 70
     0
  9
$AUPREC
 70
     0
  9
$MENU
  1
.
  9
$ELEVATION
 40
0.0
  9
$THICKNESS
 40
0.0
  9
$LIMCHECK
 70
     0
  9
$CHAMFERA
 40
0.0
  9
$CHAMFERB
 40
0.0
  9
$SKPOLY
 70
     0
  9
$TDCREATE
 40
2453353.842125822
  9
$TDUPDATE
 40
2459503.464061771
  9
$TDINDWG
 40
0.0778795139
  9
$TDUSRTIMER
 40
0.0778449306
  9
$USRTIMER
 70
     1
  9
$ANGBASE
 50
0.0
  9
$ANGDIR
 70
     0
  9
$PDMODE
 70
     0
  9
$PDSIZE
 40
0.0
  9
$PLINEWID
 40
0.0
  9
$COORDS
 70
     1
  9
$SPLFRAME
 70
     0
  9
$SPLINETYPE
 70
     6
  9
$SPLINESEGS
 70
     8
  9
$ATTDIA
 70
     0
  9
$ATTREQ
 70
     1
  9
$HANDLING
 70
     1
  9
$HANDSEED
  5
217E
  9
$SURFTAB1
 70
     6
  9
$SURFTAB2
 70
     6
  9
$SURFTYPE
 70
     6
  9
$SURFU
 70
     6
  9
$SURFV
 70
     6
  9
$UCSNAME
  2

  9
$UCSORG
 10
0.0
 20
0.0
 30
0.0
  9
$UCSXDIR
 10
1.0
 20
0.0
 30
0.0
  9
$UCSYDIR
 10
0.0
 20
1.0
 30
0.0
  9
$USERI1
 70
     0
  9
$USERI2
 70
     0
  9
$USERI3
 70
     0
  9
$USERI4
 70
     0
  9
$USERI5
 70
     0
  9
$USERR1
 40
0.0
  9
$USERR2
 40
0.0
  9
$USERR3
 40
0.0
  9
$USERR4
 40
0.0
  9
$USERR5
 40
0.0
  9
$WORLDVIEW
 70
     1
  0
ENDSEC
  0
SECTION
  2
TABLES
  0
TABLE
  2
VPORT
 70
     1
  0
VPORT
  2
*ACTIVE
 70
     0
 10
0.0
 20
0.0
 11
1.0
 21
1.0
 12
4.152940180611775
 22
51.56832623917721
 13
0.0
 23
0.0
 14
0.5
 24
0.5
 15
0.5
 25
0.5
 16
0.0
 26
0.0
 36
1.0
 17
0.0
 27
0.0
 37
0.0
 40
108.8371439536195
 41
1.701534170153417
 42
50.0
 43
0.0
 44
0.0
 50
0.0
 51
0.0
 71
    16
 72
  1000
 73
     1
 74
     3
 75
     0
 76
     0
 77
     0
 78
     0
  0
ENDTAB
  0
TABLE
  2
LTYPE
 70
     1
  0
LTYPE
  2
CONTINUOUS
 70
     0
  3
Solid line
 72
    65
 73
     0
 40
0.0
  0
ENDTAB
  0
TABLE
  2
LAYER
 70
     2
  0
LAYER
  2
0
 70
     0
 62
     7
  6
CONTINUOUS
  0
LAYER
  2
DEFPOINTS
 70
     0
 62
     7
  6
CONTINUOUS
  0
ENDTAB
  0
TABLE
  2
STYLE
 70
     2
  0
STYLE
  2
STANDARD
 70
     0
 40
0.0
 41
1.0
 50
0.0
 71
     0
 42
0.2
  3
IC-txt.shx
  4

  0
STYLE
  2
돋움
 70
     0
 40
0.0
 41
1.0
 50
0.0
 71
     0
 42
0.2
  3
Dotum.ttf
  4

  0
ENDTAB
  0
TABLE
  2
VIEW
 70
     0
  0
ENDTAB
  0
TABLE
  2
UCS
 70
     0
  0
ENDTAB
  0
ENDSEC
  0
SECTION
  2
BLOCKS
  0
BLOCK
  8
0
  2
*D1
 70
     1
 10
0.0
 20
0.0
 30
0.0
  0
POINT
  5
2130
  8
DEFPOINTS
  6
BYBLOCK
 62
     3
 10
-4.0
 20
99.5
 30
0.0
  0
POINT
  5
2131
  8
DEFPOINTS
  6
BYBLOCK
 62
     3
 10
4.0
 20
99.5
 30
0.0
  0
LINE
  5
2132
  8
0
  6
BYBLOCK
 62
     3
 10
-4.0
 20
100.0
 30
0.0
 11
-4.0
 21
103.1020365607158
 31
0.0
  0
LINE
  5
2133
  8
0
  6
BYBLOCK
 62
     3
 10
4.0
 20
100.0
 30
0.0
 11
4.0
 21
103.1020365607158
 31
0.0
  0
LINE
  5
2134
  8
0
  6
BYBLOCK
 62
     3
 10
-4.0
 20
102.6020365607158
 30
0.0
 11
4.0
 21
102.6020365607158
 31
0.0
  0
SOLID
  5
2135
  8
0
  6
BYBLOCK
 62
     3
 10
-4.0
 20
102.6020365607158
 30
0.0
 11
-2.5
 21
102.3520365607158
 31
0.0
 12
-2.5
 22
102.8520365607159
 32
0.0
 13
-2.5
 23
102.8520365607159
 33
0.0
  0
SOLID
  5
2136
  8
0
  6
BYBLOCK
 62
     3
 10
4.0
 20
102.6020365607158
 30
0.0
 11
2.5
 21
102.3520365607158
 31
0.0
 12
2.5
 22
102.8520365607159
 32
0.0
 13
2.5
 23
102.8520365607159
 33
0.0
  0
INSERT
  5
2137
  8
0
  6
BYBLOCK
 62
     3
  2
*X5
 10
0.0
 20
0.0
 30
0.0
  0
ENDBLK
  8
0
  0
BLOCK
  8
0
  2
*D2
 70
     1
 10
0.0
 20
0.0
 30
0.0
  0
POINT
  5
2140
  8
DEFPOINTS
  6
BYBLOCK
 62
     3
 10
3.5
 20
100.0
 30
0.0
  0
POINT
  5
2141
  8
DEFPOINTS
  6
BYBLOCK
 62
     3
 10
0.0
 20
-0.0000000000000036
 30
0.0
  0
LINE
  5
2142
  8
0
  6
BYBLOCK
 62
     3
 10
4.0
 20
100.0
 30
0.0
 11
19.81446712711066
 21
100.0
 31
0.0
  0
LINE
  5
2143
  8
0
  6
BYBLOCK
 62
     3
 10
0.5
 20
0.0
 30
0.0
 11
19.81446712711066
 21
0.0
 31
0.0
  0
LINE
  5
2144
  8
0
  6
BYBLOCK
 62
     3
 10
19.31446712711066
 20
100.0
 30
0.0
 11
19.31446712711066
 21
0.0
 31
0.0
  0
SOLID
  5
2145
  8
0
  6
BYBLOCK
 62
     3
 10
19.31446712711066
 20
100.0
 30
0.0
 11
19.06446712711061
 21
98.5
 31
0.0
 12
19.56446712711071
 22
98.5
 32
0.0
 13
19.56446712711071
 23
98.5
 33
0.0
  0
SOLID
  5
2146
  8
0
  6
BYBLOCK
 62
     3
 10
19.31446712711066
 20
0.0
 30
0.0
 11
19.06446712711061
 21
1.5
 31
0.0
 12
19.56446712711071
 22
1.5
 32
0.0
 13
19.56446712711071
 23
1.5
 33
0.0
  0
TEXT
  5
2147
  8
0
  6
CONTINUOUS
 62
     3
 10
19.22039104015414
 20
47.61904761904762
 30
0.0
 40
2.0
  1
100
 50
90.0
  7
돋움
  0
ENDBLK
  8
0
  0
BLOCK
  8
0
  2
*D3
 70
     1
 10
0.0
 20
0.0
 30
0.0
  0
POINT
  5
2100
  8
DEFPOINTS
  6
BYBLOCK
 62
     3
 10
3.999999999999998
 20
13.99999999999999
 30
0.0
  0
POINT
  5
2101
  8
DEFPOINTS
  6
BYBLOCK
 62
     3
 10
0.0
 20
-0.0000000000000036
 30
0.0
  0
LINE
  5
2102
  8
0
  6
BYBLOCK
 62
     3
 10
4.499999999999998
 20
13.99999999999999
 30
0.0
 11
14.77663906483854
 21
13.99999999999999
 31
0.0
  0
LINE
  5
2103
  8
0
  6
BYBLOCK
 62
     3
 10
0.5
 20
-0.0000000000000036
 30
0.0
 11
14.77663906483854
 21
-0.0000000000000036
 31
0.0
  0
LINE
  5
2104
  8
0
  6
BYBLOCK
 62
     3
 10
14.27663906483854
 20
13.99999999999999
 30
0.0
 11
14.27663906483854
 21
-0.0000000000000036
 31
0.0
  0
SOLID
  5
2105
  8
0
  6
BYBLOCK
 62
     3
 10
14.27663906483854
 20
13.99999999999999
 30
0.0
 11
14.02663906483849
 21
12.49999999999999
 31
0.0
 12
14.52663906483859
 22
12.49999999999999
 32
0.0
 13
14.52663906483859
 23
12.49999999999999
 33
0.0
  0
SOLID
  5
2106
  8
0
  6
BYBLOCK
 62
     3
 10
14.27663906483854
 20
-0.0000000000000036
 30
0.0
 11
14.02663906483849
 21
1.499999999999996
 31
0.0
 12
14.52663906483859
 22
1.499999999999996
 32
0.0
 13
14.52663906483859
 23
1.499999999999996
 33
0.0
  0
TEXT
  5
2107
  8
0
  6
CONTINUOUS
 62
     3
 10
14.18392167353419
 20
4.523809523809518
 30
0.0
 40
2.0
  1
14
 50
90.0
  7
돋움
  0
ENDBLK
  8
0
  0
BLOCK
  8
0
  2
*D4
 70
     1
 10
0.0
 20
0.0
 30
0.0
  0
LINE
  5
20A9
  8
0
  6
BYBLOCK
 62
     3
 10
-4.876120435430772
 20
1.455702552928528
 30
0.0
 11
-11.08347314494295
 21
-1.783214914557849
 31
0.0
  0
LINE
  5
20AA
  8
0
  6
BYBLOCK
 62
     3
 10
-9.536509481900062
 20
-0.9760290070906916
 30
0.0
 11
-9.536509481900062
 21
-0.9760290070906916
 31
0.0
  0
SOLID
  5
20AB
  8
0
  6
BYBLOCK
 62
     3
 10
-3.546269407586015
 20
2.149601856675293
 30
0.0
 11
-4.991770319388589
 21
1.677344390902698
 31
0.0
 12
-4.760470551472954
 22
1.234060714954357
 32
0.0
 13
-4.760470551472954
 23
1.234060714954357
 33
0.0
  0
TEXT
  5
20AC
  8
0
  6
CONTINUOUS
 62
     3
 10
-11.09797318623316
 20
-1.689265721130594
 30
0.0
 40
2.0
  1
R4
 50
27.55497842736309
  7
돋움
  0
POINT
  5
20AD
  8
DEFPOINTS
  6
BYBLOCK
 62
     3
 10
0.0000000000000007
 20
4.0
 30
0.0
  0
POINT
  5
20AE
  8
DEFPOINTS
  6
BYBLOCK
 62
     3
 10
-3.546269407586015
 20
2.149601856675293
 30
0.0
  0
ENDBLK
  8
0
  0
BLOCK
  8
0
  2
*X5
 70
     1
 10
0.0
 20
0.0
 30
0.0
  0
TEXT
  5
217A
  8
0
  6
CONTINUOUS
 62
     3
 10
-1.902109497971897
 20
102.805951976814
 30
0.0
 40
2.0
  1
\U+2205
  0
TEXT
  5
217B
  8
0
  6
CONTINUOUS
 62
     3
 10
-0.0925856884480876
 20
102.805951976814
 30
0.0
 40
2.0
  1
8
  0
ENDBLK
  8
0
  0
ENDSEC
  0
SECTION
  2
ENTITIES
  0
LINE
  5
394
  8
0
 10
-3.5
 20
100.0
 30
0.0
 11
3.5
 21
100.0
 31
0.0
  0
ARC
  5
397
  8
0
 10
0.0000000000000007
 20
4.0
 30
0.0
 40
4.0
 50
180.0
 51
0.0000000000008142
  0
LINE
  5
39C
  8
0
 10
-4.0
 20
99.5
 30
0.0
 11
4.0
 21
99.5
 31
0.0
  0
LINE
  5
39D
  8
0
 10
-4.0
 20
99.5
 30
0.0
 11
-3.5
 21
100.0
 31
0.0
  0
LINE
  5
39E
  8
0
 10
4.0
 20
99.5
 30
0.0
 11
3.5
 21
100.0
 31
0.0
  0
DIMENSION
  5
39F
  8
0
  2
*D1
 10
4.0
 20
102.6020365607158
 30
0.0
 11
-0.3306809265433256
 21
102.6020365607158
 31
0.0
 70
   160
  1
{\fArial|b0|i0|c0|p32;%%c\f\U+B3CB\U+C6C0|b0|i0|c129|p0;<>}
 13
-4.0
 23
99.5
 33
0.0
 14
4.0
 24
99.5
 34
0.0
  0
DIMENSION
  5
89F
  8
0
  2
*D2
 10
19.31446712711066
 20
-0.0000000000000047
 30
0.0
 11
18.22039104015413
 21
50.0
 31
0.0
 70
    32
 13
3.5
 23
100.0
 33
0.0
 14
0.0
 24
-0.0000000000000036
 34
0.0
 50
90.0
  0
DIMENSION
  5
13E8
  8
0
  2
*D3
 10
14.27663906483854
 20
-0.0000000000000036
 30
0.0
 11
14.27663906483854
 21
5.999999999999995
 31
0.0
 70
   160
 13
3.999999999999998
 23
13.99999999999999
 33
0.0
 14
0.0
 24
-0.0000000000000036
 34
0.0
 50
90.0
  0
LINE
  5
1F92
  8
0
 10
-4.0
 20
99.5
 30
0.0
 11
-4.000000000000004
 21
4.0
 31
0.0
  0
LINE
  5
1F93
  8
0
 10
4.0
 20
99.5
 30
0.0
 11
3.999999999999996
 21
4.000000000000057
 31
0.0
  0
DIMENSION
  5
1FA4
  8
0
  2
*D4
 10
0.0000000000000007
 20
4.0
 30
0.0
 11
-9.536509481900062
 21
-0.9760290070906916
 31
0.0
 70
   164
 15
-3.546269407586015
 25
2.149601856675293
 35
0.0
 40
0.0
  0
ENDSEC
  0
EOF
