  0
SECTION
  2
HEADER
  9
$ACADVER
  1
AC1006
  9
$DWGCODEPAGE
  3
ansi_949
  9
$INSBASE
 10
0.0
 20
0.0
 30
0.0
  9
$EXTMIN
 10
-11.96723267003309
 20
-2.311610223311314
  9
$EXTMAX
 10
22.10029723178644
 20
104.9198673929123
  9
$LIMMIN
 10
0.0
 20
0.0
  9
$LIMMAX
 10
12.0
 20
9.0
  9
$ORTHOMODE
 70
     1
  9
$REGENMODE
 70
     1
  9
$FILLMODE
 70
     1
  9
$QTEXTMODE
 70
     0
  9
$MIRRTEXT
 70
     0
  9
$DRAGMODE
 70
     2
  9
$LTSCALE
 40
1.0
  9
$OSMODE
 70
    37
  9
$ATTMODE
 70
     1
  9
$TEXTSIZE
 40
0.2
  9
$TRACEWID
 40
0.05
  9
$TEXTSTYLE
  7
STANDARD
  9
$CLAYER
  8
0
  9
$CELTYPE
  6
BYLAYER
  9
$CECOLOR
 62
   256
  9
$DIMSCALE
 40
1.0
  9
$DIMASZ
 40
1.5
  9
$DIMEXO
 40
0.5
  9
$DIMDLI
 40
2.0
  9
$DIMRND
 40
0.0
  9
$DIMDLE
 40
0.0
  9
$DIMEXE
 40
0.5
  9
$DIMTP
 40
0.0
  9
$DIMTM
 40
0.0
  9
$DIMTXT
 40
2.0
  9
$DIMCEN
 40
0.0
  9
$DIMTSZ
 40
0.0
  9
$DIMTOL
 70
     0
  9
$DIMLIM
 70
     0
  9
$DIMTIH
 70
     0
  9
$DIMTOH
 70
     0
  9
$DIMSE1
 70
     0
  9
$DIMSE2
 70
     0
  9
$DIMTAD
 70
     1
  9
$DIMZIN
 70
     0
  9
$DIMBLK
  1

  9
$DIMASO
 70
     1
  9
$DIMSHO
 70
     1
  9
$DIMPOST
  1

  9
$DIMAPOST
  1

  9
$DIMALT
 70
     0
  9
$DIMALTD
 70
     2
  9
$DIMALTF
 40
25.4
  9
$DIMLFAC
 40
1.0
  9
$DIMTOFL
 70
     0
  9
$DIMTVP
 40
0.0
  9
$DIMTIX
 70
     0
  9
$DIMSOXD
 70
     0
  9
$DIMSAH
 70
     0
  9
$DIMBLK1
  1

  9
$DIMBLK2
  1

  9
$LUNITS
 70
     2
  9
$LUPREC
 70
     4
  9
$SKETCHINC
 40
0.1
  9
$FILLETRAD
 40
0.0
  9
$AUNITS
 70
     0
  9
$AUPREC
 70
     0
  9
$MENU
  1
.
  9
$ELEVATION
 40
0.0
  9
$THICKNESS
 40
0.0
  9
$LIMCHECK
 70
     0
  9
$CHAMFERA
 40
0.0
  9
$CHAMFERB
 40
0.0
  9
$SKPOLY
 70
     0
  9
$TDCREATE
 40
2453353.842125822
  9
$TDUPDATE
 40
2459503.464789097
  9
$TDINDWG
 40
0.0809582986
  9
$TDUSRTIMER
 40
0.0809236111
  9
$USRTIMER
 70
     1
  9
$ANGBASE
 50
0.0
  9
$ANGDIR
 70
     0
  9
$PDMODE
 70
     0
  9
$PDSIZE
 40
0.0
  9
$PLINEWID
 40
0.0
  9
$COORDS
 70
     1
  9
$SPLFRAME
 70
     0
  9
$SPLINETYPE
 70
     6
  9
$SPLINESEGS
 70
     8
  9
$ATTDIA
 70
     0
  9
$ATTREQ
 70
     1
  9
$HANDLING
 70
     1
  9
$HANDSEED
  5
249C
  9
$SURFTAB1
 70
     6
  9
$SURFTAB2
 70
     6
  9
$SURFTYPE
 70
     6
  9
$SURFU
 70
     6
  9
$SURFV
 70
     6
  9
$UCSNAME
  2

  9
$UCSORG
 10
0.0
 20
0.0
 30
0.0
  9
$UCSXDIR
 10
1.0
 20
0.0
 30
0.0
  9
$UCSYDIR
 10
0.0
 20
1.0
 30
0.0
  9
$USERI1
 70
     0
  9
$USERI2
 70
     0
  9
$USERI3
 70
     0
  9
$USERI4
 70
     0
  9
$USERI5
 70
     0
  9
$USERR1
 40
0.0
  9
$USERR2
 40
0.0
  9
$USERR3
 40
0.0
  9
$USERR4
 40
0.0
  9
$USERR5
 40
0.0
  9
$WORLDVIEW
 70
     1
  0
ENDSEC
  0
SECTION
  2
TABLES
  0
TABLE
  2
VPORT
 70
     1
  0
VPORT
  2
*ACTIVE
 70
     0
 10
0.0
 20
0.0
 11
1.0
 21
1.0
 12
5.066532280876674
 22
51.30412858480047
 13
0.0
 23
0.0
 14
0.5
 24
0.5
 15
0.5
 25
0.5
 16
0.0
 26
0.0
 36
1.0
 17
0.0
 27
0.0
 37
0.0
 40
109.3761071685481
 41
1.701534170153416
 42
50.0
 43
0.0
 44
0.0
 50
0.0
 51
0.0
 71
    16
 72
  1000
 73
     1
 74
     3
 75
     0
 76
     0
 77
     0
 78
     0
  0
ENDTAB
  0
TABLE
  2
LTYPE
 70
     1
  0
LTYPE
  2
CONTINUOUS
 70
     0
  3
Solid line
 72
    65
 73
     0
 40
0.0
  0
ENDTAB
  0
TABLE
  2
LAYER
 70
     2
  0
LAYER
  2
0
 70
     0
 62
     7
  6
CONTINUOUS
  0
LAYER
  2
DEFPOINTS
 70
     0
 62
     7
  6
CONTINUOUS
  0
ENDTAB
  0
TABLE
  2
STYLE
 70
     2
  0
STYLE
  2
STANDARD
 70
     0
 40
0.0
 41
1.0
 50
0.0
 71
     0
 42
0.2
  3
IC-txt.shx
  4

  0
STYLE
  2
돋움
 70
     0
 40
0.0
 41
1.0
 50
0.0
 71
     0
 42
0.2
  3
Dotum.ttf
  4

  0
ENDTAB
  0
TABLE
  2
VIEW
 70
     0
  0
ENDTAB
  0
TABLE
  2
UCS
 70
     0
  0
ENDTAB
  0
ENDSEC
  0
SECTION
  2
BLOCKS
  0
BLOCK
  8
0
  2
*D1
 70
     1
 10
0.0
 20
0.0
 30
0.0
  0
POINT
  5
244E
  8
DEFPOINTS
  6
BYBLOCK
 62
     3
 10
-5.0
 20
99.5
 30
0.0
  0
POINT
  5
244F
  8
DEFPOINTS
  6
BYBLOCK
 62
     3
 10
5.0
 20
99.5
 30
0.0
  0
LINE
  5
2450
  8
0
  6
BYBLOCK
 62
     3
 10
-5.0
 20
100.0
 30
0.0
 11
-5.0
 21
103.1020365607158
 31
0.0
  0
LINE
  5
2451
  8
0
  6
BYBLOCK
 62
     3
 10
5.0
 20
100.0
 30
0.0
 11
5.0
 21
103.1020365607158
 31
0.0
  0
LINE
  5
2452
  8
0
  6
BYBLOCK
 62
     3
 10
-5.0
 20
102.6020365607158
 30
0.0
 11
5.0
 21
102.6020365607158
 31
0.0
  0
SOLID
  5
2453
  8
0
  6
BYBLOCK
 62
     3
 10
-5.0
 20
102.6020365607158
 30
0.0
 11
-3.5
 21
102.3520365607158
 31
0.0
 12
-3.5
 22
102.8520365607159
 32
0.0
 13
-3.5
 23
102.8520365607159
 33
0.0
  0
SOLID
  5
2454
  8
0
  6
BYBLOCK
 62
     3
 10
5.0
 20
102.6020365607158
 30
0.0
 11
3.5
 21
102.3520365607158
 31
0.0
 12
3.5
 22
102.8520365607159
 32
0.0
 13
3.5
 23
102.8520365607159
 33
0.0
  0
INSERT
  5
2455
  8
0
  6
BYBLOCK
 62
     3
  2
*X5
 10
0.0
 20
0.0
 30
0.0
  0
ENDBLK
  8
0
  0
BLOCK
  8
0
  2
*D2
 70
     1
 10
0.0
 20
0.0
 30
0.0
  0
POINT
  5
245E
  8
DEFPOINTS
  6
BYBLOCK
 62
     3
 10
4.5
 20
100.0
 30
0.0
  0
POINT
  5
245F
  8
DEFPOINTS
  6
BYBLOCK
 62
     3
 10
0.0
 20
-0.0000000000000036
 30
0.0
  0
LINE
  5
2460
  8
0
  6
BYBLOCK
 62
     3
 10
5.0
 20
100.0
 30
0.0
 11
22.10029723178644
 21
100.0
 31
0.0
  0
LINE
  5
2461
  8
0
  6
BYBLOCK
 62
     3
 10
0.5
 20
0.0
 30
0.0
 11
22.10029723178644
 21
0.0
 31
0.0
  0
LINE
  5
2462
  8
0
  6
BYBLOCK
 62
     3
 10
21.60029723178644
 20
100.0
 30
0.0
 11
21.60029723178644
 21
0.0
 31
0.0
  0
SOLID
  5
2463
  8
0
  6
BYBLOCK
 62
     3
 10
21.60029723178644
 20
100.0
 30
0.0
 11
21.35029723178639
 21
98.5
 31
0.0
 12
21.85029723178649
 22
98.5
 32
0.0
 13
21.85029723178649
 23
98.5
 33
0.0
  0
SOLID
  5
2464
  8
0
  6
BYBLOCK
 62
     3
 10
21.60029723178644
 20
0.0
 30
0.0
 11
21.35029723178639
 21
1.5
 31
0.0
 12
21.85029723178649
 22
1.5
 32
0.0
 13
21.85029723178649
 23
1.5
 33
0.0
  0
TEXT
  5
2465
  8
0
  6
CONTINUOUS
 62
     3
 10
21.50622114482991
 20
47.61904761904762
 30
0.0
 40
2.0
  1
100
 50
90.0
  7
돋움
  0
ENDBLK
  8
0
  0
BLOCK
  8
0
  2
*D3
 70
     1
 10
0.0
 20
0.0
 30
0.0
  0
POINT
  5
243E
  8
DEFPOINTS
  6
BYBLOCK
 62
     3
 10
4.999999999999998
 20
18.0
 30
0.0
  0
POINT
  5
243F
  8
DEFPOINTS
  6
BYBLOCK
 62
     3
 10
0.0
 20
-0.0000000000000036
 30
0.0
  0
LINE
  5
2440
  8
0
  6
BYBLOCK
 62
     3
 10
5.499999999999998
 20
18.0
 30
0.0
 11
16.57264843279808
 21
18.0
 31
0.0
  0
LINE
  5
2441
  8
0
  6
BYBLOCK
 62
     3
 10
0.5
 20
-0.0000000000000036
 30
0.0
 11
16.57264843279808
 21
-0.0000000000000036
 31
0.0
  0
LINE
  5
2442
  8
0
  6
BYBLOCK
 62
     3
 10
16.07264843279808
 20
18.0
 30
0.0
 11
16.07264843279808
 21
-0.0000000000000036
 31
0.0
  0
SOLID
  5
2443
  8
0
  6
BYBLOCK
 62
     3
 10
16.07264843279808
 20
18.0
 30
0.0
 11
15.82264843279803
 21
16.5
 31
0.0
 12
16.32264843279813
 22
16.5
 32
0.0
 13
16.32264843279813
 23
16.5
 33
0.0
  0
SOLID
  5
2444
  8
0
  6
BYBLOCK
 62
     3
 10
16.07264843279808
 20
-0.0000000000000036
 30
0.0
 11
15.82264843279803
 21
1.499999999999996
 31
0.0
 12
16.32264843279813
 22
1.499999999999996
 32
0.0
 13
16.32264843279813
 23
1.499999999999996
 33
0.0
  0
TEXT
  5
2445
  8
0
  6
CONTINUOUS
 62
     3
 10
15.97857234584156
 20
6.071428571428569
 30
0.0
 40
2.0
  1
18
 50
90.0
  7
돋움
  0
ENDBLK
  8
0
  0
BLOCK
  8
0
  2
*D4
 70
     1
 10
0.0
 20
0.0
 30
0.0
  0
LINE
  5
23C3
  8
0
  6
BYBLOCK
 62
     3
 10
-5.464166455340454
 20
1.479647042080564
 30
0.0
 11
-11.34882092628404
 21
-2.311610223311314
 31
0.0
  0
LINE
  5
23C4
  8
0
  6
BYBLOCK
 62
     3
 10
-9.88313594255681
 20
-1.367325580811205
 30
0.0
 11
-9.88313594255681
 21
-1.367325580811205
 31
0.0
  0
SOLID
  5
23C5
  8
0
  6
BYBLOCK
 62
     3
 10
-4.203204965646503
 20
2.292036186215818
 30
0.0
 11
-5.59956464602969
 21
1.689807290362932
 31
0.0
 12
-5.328768264651218
 22
1.269486793798197
 32
0.0
 13
-5.328768264651218
 23
1.269486793798197
 33
0.0
  0
TEXT
  5
23C6
  8
0
  6
CONTINUOUS
 62
     3
 10
-11.33294761308709
 20
-2.194322496024295
 30
0.0
 40
2.0
  1
R5
 50
32.79213106579773
  7
돋움
  0
POINT
  5
23C7
  8
DEFPOINTS
  6
BYBLOCK
 62
     3
 10
0.0000000000000009
 20
5.0
 30
0.0
  0
POINT
  5
23C8
  8
DEFPOINTS
  6
BYBLOCK
 62
     3
 10
-4.203204965646503
 20
2.292036186215818
 30
0.0
  0
ENDBLK
  8
0
  0
BLOCK
  8
0
  2
*X5
 70
     1
 10
0.0
 20
0.0
 30
0.0
  0
TEXT
  5
2498
  8
0
  6
CONTINUOUS
 62
     3
 10
-2.664014259876659
 20
102.805951976814
 30
0.0
 40
2.0
  1
\U+2205
  0
TEXT
  5
2499
  8
0
  6
CONTINUOUS
 62
     3
 10
-0.8544904503528494
 20
102.805951976814
 30
0.0
 40
2.0
  1
10
  0
ENDBLK
  8
0
  0
ENDSEC
  0
SECTION
  2
ENTITIES
  0
LINE
  5
394
  8
0
 10
-4.5
 20
100.0
 30
0.0
 11
4.5
 21
100.0
 31
0.0
  0
ARC
  5
397
  8
0
 10
0.0000000000000009
 20
5.0
 30
0.0
 40
5.0
 50
180.0
 51
0.0000000000008142
  0
LINE
  5
39C
  8
0
 10
-5.0
 20
99.5
 30
0.0
 11
5.0
 21
99.5
 31
0.0
  0
LINE
  5
39D
  8
0
 10
-5.0
 20
99.5
 30
0.0
 11
-4.5
 21
100.0
 31
0.0
  0
LINE
  5
39E
  8
0
 10
5.0
 20
99.5
 30
0.0
 11
4.5
 21
100.0
 31
0.0
  0
DIMENSION
  5
39F
  8
0
  2
*D1
 10
5.0
 20
102.6020365607158
 30
0.0
 11
-0.3306809265433256
 21
102.6020365607158
 31
0.0
 70
   160
  1
{\fArial|b0|i0|c0|p32;%%c\f\U+B3CB\U+C6C0|b0|i0|c129|p0;<>}
 13
-5.0
 23
99.5
 33
0.0
 14
5.0
 24
99.5
 34
0.0
  0
DIMENSION
  5
89F
  8
0
  2
*D2
 10
21.60029723178644
 20
-0.0000000000000049
 30
0.0
 11
20.50622114482992
 21
50.0
 31
0.0
 70
    32
 13
4.5
 23
100.0
 33
0.0
 14
0.0
 24
-0.0000000000000036
 34
0.0
 50
90.0
  0
DIMENSION
  5
13E8
  8
0
  2
*D3
 10
16.07264843279808
 20
-0.0000000000000036
 30
0.0
 11
16.07264843279808
 21
7.499999999999998
 31
0.0
 70
   160
 13
4.999999999999998
 23
18.0
 33
0.0
 14
0.0
 24
-0.0000000000000036
 34
0.0
 50
90.0
  0
LINE
  5
1F92
  8
0
 10
-5.0
 20
99.5
 30
0.0
 11
-5.000000000000004
 21
5.000000000000004
 31
0.0
  0
LINE
  5
1F93
  8
0
 10
5.0
 20
99.5
 30
0.0
 11
4.999999999999996
 21
5.000000000000099
 31
0.0
  0
DIMENSION
  5
21E0
  8
0
  2
*D4
 10
0.0000000000000009
 20
5.0
 30
0.0
 11
-9.88313594255681
 21
-1.367325580811205
 31
0.0
 70
   164
 15
-4.203204965646503
 25
2.292036186215818
 35
0.0
 40
0.0
  0
LINE
  5
23BB
  8
0
  6
BYBLOCK
 62
     3
 10
0.0000000000000009
 20
5.0
 30
0.0
 11
0.0000000000000009
 21
5.0
 31
0.0
  0
LINE
  5
23BC
  8
0
  6
BYBLOCK
 62
     3
 10
0.0000000000000009
 20
5.0
 30
0.0
 11
0.0000000000000009
 21
5.0
 31
0.0
  0
ENDSEC
  0
EOF
