  0
SECTION
  2
HEADER
  9
$ACADVER
  1
AC1006
  9
$DWGCODEPAGE
  3
ansi_949
  9
$INSBASE
 10
0.0
 20
0.0
 30
0.0
  9
$EXTMIN
 10
-13.23367402894193
 20
-0.8351309755911923
  9
$EXTMAX
 10
22.10029723178644
 20
114.9198673929123
  9
$LIMMIN
 10
0.0
 20
0.0
  9
$LIMMAX
 10
12.0
 20
9.0
  9
$ORTHOMODE
 70
     1
  9
$REGENMODE
 70
     1
  9
$FILLMODE
 70
     1
  9
$QTEXTMODE
 70
     0
  9
$MIRRTEXT
 70
     0
  9
$DRAGMODE
 70
     2
  9
$LTSCALE
 40
1.0
  9
$OSMODE
 70
    37
  9
$ATTMODE
 70
     1
  9
$TEXTSIZE
 40
0.2
  9
$TRACEWID
 40
0.05
  9
$TEXTSTYLE
  7
STANDARD
  9
$CLAYER
  8
0
  9
$CELTYPE
  6
BYLAYER
  9
$CECOLOR
 62
   256
  9
$DIMSCALE
 40
1.0
  9
$DIMASZ
 40
1.5
  9
$DIMEXO
 40
0.5
  9
$DIMDLI
 40
2.0
  9
$DIMRND
 40
0.0
  9
$DIMDLE
 40
0.0
  9
$DIMEXE
 40
0.5
  9
$DIMTP
 40
0.0
  9
$DIMTM
 40
0.0
  9
$DIMTXT
 40
2.0
  9
$DIMCEN
 40
0.0
  9
$DIMTSZ
 40
0.0
  9
$DIMTOL
 70
     0
  9
$DIMLIM
 70
     0
  9
$DIMTIH
 70
     0
  9
$DIMTOH
 70
     0
  9
$DIMSE1
 70
     0
  9
$DIMSE2
 70
     0
  9
$DIMTAD
 70
     1
  9
$DIMZIN
 70
     0
  9
$DIMBLK
  1

  9
$DIMASO
 70
     1
  9
$DIMSHO
 70
     1
  9
$DIMPOST
  1

  9
$DIMAPOST
  1

  9
$DIMALT
 70
     0
  9
$DIMALTD
 70
     2
  9
$DIMALTF
 40
25.4
  9
$DIMLFAC
 40
1.0
  9
$DIMTOFL
 70
     0
  9
$DIMTVP
 40
0.0
  9
$DIMTIX
 70
     0
  9
$DIMSOXD
 70
     0
  9
$DIMSAH
 70
     0
  9
$DIMBLK1
  1

  9
$DIMBLK2
  1

  9
$LUNITS
 70
     2
  9
$LUPREC
 70
     4
  9
$SKETCHINC
 40
0.1
  9
$FILLETRAD
 40
0.0
  9
$AUNITS
 70
     0
  9
$AUPREC
 70
     0
  9
$MENU
  1
.
  9
$ELEVATION
 40
0.0
  9
$THICKNESS
 40
0.0
  9
$LIMCHECK
 70
     0
  9
$CHAMFERA
 40
0.0
  9
$CHAMFERB
 40
0.0
  9
$SKPOLY
 70
     0
  9
$TDCREATE
 40
2453353.842125822
  9
$TDUPDATE
 40
2459503.465024861
  9
$TDINDWG
 40
0.0818957986
  9
$TDUSRTIMER
 40
0.0818611111
  9
$USRTIMER
 70
     1
  9
$ANGBASE
 50
0.0
  9
$ANGDIR
 70
     0
  9
$PDMODE
 70
     0
  9
$PDSIZE
 40
0.0
  9
$PLINEWID
 40
0.0
  9
$COORDS
 70
     1
  9
$SPLFRAME
 70
     0
  9
$SPLINETYPE
 70
     6
  9
$SPLINESEGS
 70
     8
  9
$ATTDIA
 70
     0
  9
$ATTREQ
 70
     1
  9
$HANDLING
 70
     1
  9
$HANDSEED
  5
25E8
  9
$SURFTAB1
 70
     6
  9
$SURFTAB2
 70
     6
  9
$SURFTYPE
 70
     6
  9
$SURFU
 70
     6
  9
$SURFV
 70
     6
  9
$UCSNAME
  2

  9
$UCSORG
 10
0.0
 20
0.0
 30
0.0
  9
$UCSXDIR
 10
1.0
 20
0.0
 30
0.0
  9
$UCSYDIR
 10
0.0
 20
1.0
 30
0.0
  9
$USERI1
 70
     0
  9
$USERI2
 70
     0
  9
$USERI3
 70
     0
  9
$USERI4
 70
     0
  9
$USERI5
 70
     0
  9
$USERR1
 40
0.0
  9
$USERR2
 40
0.0
  9
$USERR3
 40
0.0
  9
$USERR4
 40
0.0
  9
$USERR5
 40
0.0
  9
$WORLDVIEW
 70
     1
  0
ENDSEC
  0
SECTION
  2
TABLES
  0
TABLE
  2
VPORT
 70
     1
  0
VPORT
  2
*ACTIVE
 70
     0
 10
0.0
 20
0.0
 11
1.0
 21
1.0
 12
4.433311601422256
 22
57.04236820866053
 13
0.0
 23
0.0
 14
0.5
 24
0.5
 15
0.5
 25
0.5
 16
0.0
 26
0.0
 36
1.0
 17
0.0
 27
0.0
 37
0.0
 40
118.0700983358735
 41
1.701534170153417
 42
50.0
 43
0.0
 44
0.0
 50
0.0
 51
0.0
 71
    16
 72
  1000
 73
     1
 74
     3
 75
     0
 76
     0
 77
     0
 78
     0
  0
ENDTAB
  0
TABLE
  2
LTYPE
 70
     1
  0
LTYPE
  2
CONTINUOUS
 70
     0
  3
Solid line
 72
    65
 73
     0
 40
0.0
  0
ENDTAB
  0
TABLE
  2
LAYER
 70
     2
  0
LAYER
  2
0
 70
     0
 62
     7
  6
CONTINUOUS
  0
LAYER
  2
DEFPOINTS
 70
     0
 62
     7
  6
CONTINUOUS
  0
ENDTAB
  0
TABLE
  2
STYLE
 70
     2
  0
STYLE
  2
STANDARD
 70
     0
 40
0.0
 41
1.0
 50
0.0
 71
     0
 42
0.2
  3
IC-txt.shx
  4

  0
STYLE
  2
돋움
 70
     0
 40
0.0
 41
1.0
 50
0.0
 71
     0
 42
0.2
  3
Dotum.ttf
  4

  0
ENDTAB
  0
TABLE
  2
VIEW
 70
     0
  0
ENDTAB
  0
TABLE
  2
UCS
 70
     0
  0
ENDTAB
  0
ENDSEC
  0
SECTION
  2
BLOCKS
  0
BLOCK
  8
0
  2
*D1
 70
     1
 10
0.0
 20
0.0
 30
0.0
  0
POINT
  5
259A
  8
DEFPOINTS
  6
BYBLOCK
 62
     3
 10
-6.0
 20
109.5
 30
0.0
  0
POINT
  5
259B
  8
DEFPOINTS
  6
BYBLOCK
 62
     3
 10
6.0
 20
109.5
 30
0.0
  0
LINE
  5
259C
  8
0
  6
BYBLOCK
 62
     3
 10
-6.0
 20
110.0
 30
0.0
 11
-6.0
 21
113.1020365607158
 31
0.0
  0
LINE
  5
259D
  8
0
  6
BYBLOCK
 62
     3
 10
6.0
 20
110.0
 30
0.0
 11
6.0
 21
113.1020365607158
 31
0.0
  0
LINE
  5
259E
  8
0
  6
BYBLOCK
 62
     3
 10
-6.0
 20
112.6020365607158
 30
0.0
 11
6.0
 21
112.6020365607158
 31
0.0
  0
SOLID
  5
259F
  8
0
  6
BYBLOCK
 62
     3
 10
-6.0
 20
112.6020365607158
 30
0.0
 11
-4.5
 21
112.3520365607158
 31
0.0
 12
-4.5
 22
112.8520365607159
 32
0.0
 13
-4.5
 23
112.8520365607159
 33
0.0
  0
SOLID
  5
25A0
  8
0
  6
BYBLOCK
 62
     3
 10
6.0
 20
112.6020365607158
 30
0.0
 11
4.5
 21
112.3520365607158
 31
0.0
 12
4.5
 22
112.8520365607159
 32
0.0
 13
4.5
 23
112.8520365607159
 33
0.0
  0
INSERT
  5
25A1
  8
0
  6
BYBLOCK
 62
     3
  2
*X5
 10
0.0
 20
0.0
 30
0.0
  0
ENDBLK
  8
0
  0
BLOCK
  8
0
  2
*D2
 70
     1
 10
0.0
 20
0.0
 30
0.0
  0
POINT
  5
25AA
  8
DEFPOINTS
  6
BYBLOCK
 62
     3
 10
5.5
 20
110.0
 30
0.0
  0
POINT
  5
25AB
  8
DEFPOINTS
  6
BYBLOCK
 62
     3
 10
0.0
 20
-0.0000000000000036
 30
0.0
  0
LINE
  5
25AC
  8
0
  6
BYBLOCK
 62
     3
 10
6.0
 20
110.0
 30
0.0
 11
22.10029723178644
 21
110.0
 31
0.0
  0
LINE
  5
25AD
  8
0
  6
BYBLOCK
 62
     3
 10
0.5
 20
0.0
 30
0.0
 11
22.10029723178644
 21
0.0
 31
0.0
  0
LINE
  5
25AE
  8
0
  6
BYBLOCK
 62
     3
 10
21.60029723178644
 20
110.0
 30
0.0
 11
21.60029723178644
 21
0.0
 31
0.0
  0
SOLID
  5
25AF
  8
0
  6
BYBLOCK
 62
     3
 10
21.60029723178644
 20
110.0
 30
0.0
 11
21.35029723178639
 21
108.5
 31
0.0
 12
21.85029723178649
 22
108.5
 32
0.0
 13
21.85029723178649
 23
108.5
 33
0.0
  0
SOLID
  5
25B0
  8
0
  6
BYBLOCK
 62
     3
 10
21.60029723178644
 20
0.0
 30
0.0
 11
21.35029723178639
 21
1.5
 31
0.0
 12
21.85029723178649
 22
1.5
 32
0.0
 13
21.85029723178649
 23
1.5
 33
0.0
  0
TEXT
  5
25B1
  8
0
  6
CONTINUOUS
 62
     3
 10
21.50622114482991
 20
52.80952380952381
 30
0.0
 40
2.0
  1
110
 50
90.0
  7
돋움
  0
ENDBLK
  8
0
  0
BLOCK
  8
0
  2
*D3
 70
     1
 10
0.0
 20
0.0
 30
0.0
  0
POINT
  5
258A
  8
DEFPOINTS
  6
BYBLOCK
 62
     3
 10
5.999999999999996
 20
22.0
 30
0.0
  0
POINT
  5
258B
  8
DEFPOINTS
  6
BYBLOCK
 62
     3
 10
0.0
 20
-0.0000000000000036
 30
0.0
  0
LINE
  5
258C
  8
0
  6
BYBLOCK
 62
     3
 10
6.499999999999996
 20
22.0
 30
0.0
 11
16.57264843279808
 21
22.0
 31
0.0
  0
LINE
  5
258D
  8
0
  6
BYBLOCK
 62
     3
 10
0.5
 20
-0.0000000000000036
 30
0.0
 11
16.57264843279808
 21
-0.0000000000000036
 31
0.0
  0
LINE
  5
258E
  8
0
  6
BYBLOCK
 62
     3
 10
16.07264843279808
 20
22.0
 30
0.0
 11
16.07264843279808
 21
-0.0000000000000036
 31
0.0
  0
SOLID
  5
258F
  8
0
  6
BYBLOCK
 62
     3
 10
16.07264843279808
 20
22.0
 30
0.0
 11
15.82264843279803
 21
20.5
 31
0.0
 12
16.32264843279813
 22
20.5
 32
0.0
 13
16.32264843279813
 23
20.5
 33
0.0
  0
SOLID
  5
2590
  8
0
  6
BYBLOCK
 62
     3
 10
16.07264843279808
 20
-0.0000000000000036
 30
0.0
 11
15.82264843279803
 21
1.499999999999996
 31
0.0
 12
16.32264843279813
 22
1.499999999999996
 32
0.0
 13
16.32264843279813
 23
1.499999999999996
 33
0.0
  0
TEXT
  5
2591
  8
0
  6
CONTINUOUS
 62
     3
 10
15.97993104149373
 20
7.38095238095238
 30
0.0
 40
2.0
  1
22
 50
90.0
  7
돋움
  0
ENDBLK
  8
0
  0
BLOCK
  8
0
  2
*D4
 70
     1
 10
0.0
 20
0.0
 30
0.0
  0
LINE
  5
24A0
  8
0
  6
BYBLOCK
 62
     3
 10
-6.614292012868244
 20
2.464304712152451
 30
0.0
 11
-12.78660872563024
 21
-0.8351309755911923
 31
0.0
  0
LINE
  5
24A1
  8
0
  6
BYBLOCK
 62
     3
 10
-11.25017579255412
 20
-0.0138248295966967
 30
0.0
 11
-11.25017579255412
 21
-0.0138248295966967
 31
0.0
  0
SOLID
  5
24A2
  8
0
  6
BYBLOCK
 62
     3
 10
-5.291433610294595
 20
3.17144376972196
 30
0.0
 11
-6.732148522463186
 21
2.684781112581437
 31
0.0
 12
-6.496435503273302
 22
2.243828311723465
 32
0.0
 13
-6.496435503273302
 23
2.243828311723465
 33
0.0
  0
TEXT
  5
24A3
  8
0
  6
CONTINUOUS
 62
     3
 10
-12.72045130069096
 20
-0.6977145304379366
 30
0.0
 40
2.0
  1
R6
 50
28.12690365096582
  7
돋움
  0
POINT
  5
24A4
  8
DEFPOINTS
  6
BYBLOCK
 62
     3
 10
0.0000000000000011
 20
5.999999999999996
 30
0.0
  0
POINT
  5
24A5
  8
DEFPOINTS
  6
BYBLOCK
 62
     3
 10
-5.291433610294595
 20
3.17144376972196
 30
0.0
  0
ENDBLK
  8
0
  0
BLOCK
  8
0
  2
*X5
 70
     1
 10
0.0
 20
0.0
 30
0.0
  0
TEXT
  5
25E4
  8
0
  6
CONTINUOUS
 62
     3
 10
-2.664014259876659
 20
112.805951976814
 30
0.0
 40
2.0
  1
\U+2205
  0
TEXT
  5
25E5
  8
0
  6
CONTINUOUS
 62
     3
 10
-0.8544904503528494
 20
112.805951976814
 30
0.0
 40
2.0
  1
12
  0
ENDBLK
  8
0
  0
ENDSEC
  0
SECTION
  2
ENTITIES
  0
LINE
  5
394
  8
0
 10
-5.5
 20
110.0
 30
0.0
 11
5.5
 21
110.0
 31
0.0
  0
ARC
  5
397
  8
0
 10
0.0000000000000011
 20
5.999999999999996
 30
0.0
 40
6.0
 50
180.0
 51
0.0000000000008142
  0
LINE
  5
39C
  8
0
 10
-6.0
 20
109.5
 30
0.0
 11
6.0
 21
109.5
 31
0.0
  0
LINE
  5
39D
  8
0
 10
-6.0
 20
109.5
 30
0.0
 11
-5.5
 21
110.0
 31
0.0
  0
LINE
  5
39E
  8
0
 10
6.0
 20
109.5
 30
0.0
 11
5.5
 21
110.0
 31
0.0
  0
DIMENSION
  5
39F
  8
0
  2
*D1
 10
6.0
 20
112.6020365607158
 30
0.0
 11
-0.3306809265433256
 21
112.6020365607158
 31
0.0
 70
   160
  1
{\fArial|b0|i0|c0|p32;%%c\f\U+B3CB\U+C6C0|b0|i0|c129|p0;<>}
 13
-6.0
 23
109.5
 33
0.0
 14
6.0
 24
109.5
 34
0.0
  0
DIMENSION
  5
89F
  8
0
  2
*D2
 10
21.60029723178644
 20
-0.0000000000000049
 30
0.0
 11
20.50622114482992
 21
55.0
 31
0.0
 70
    32
 13
5.5
 23
110.0
 33
0.0
 14
0.0
 24
-0.0000000000000036
 34
0.0
 50
90.0
  0
DIMENSION
  5
13E8
  8
0
  2
*D3
 10
16.07264843279808
 20
-0.0000000000000036
 30
0.0
 11
16.07264843279808
 21
8.999999999999998
 31
0.0
 70
   160
 13
5.999999999999996
 23
22.0
 33
0.0
 14
0.0
 24
-0.0000000000000036
 34
0.0
 50
90.0
  0
LINE
  5
1F92
  8
0
 10
-6.0
 20
109.5
 30
0.0
 11
-6.000000000000003
 21
6.0
 31
0.0
  0
LINE
  5
1F93
  8
0
 10
6.0
 20
109.5
 30
0.0
 11
5.999999999999996
 21
6.000000000000085
 31
0.0
  0
DIMENSION
  5
248C
  8
0
  2
*D4
 10
0.0000000000000011
 20
5.999999999999996
 30
0.0
 11
-11.25017579255412
 21
-0.0138248295966967
 31
0.0
 70
   164
 15
-5.291433610294595
 25
3.17144376972196
 35
0.0
 40
0.0
  0
ENDSEC
  0
EOF
