  0
SECTION
  2
HEADER
  9
$ACADVER
  1
AC1006
  9
$DWGCODEPAGE
  3
ansi_949
  9
$INSBASE
 10
0.0
 20
0.0
 30
0.0
  9
$EXTMIN
 10
-14.52339158557162
 20
-0.8572916237551372
  9
$EXTMAX
 10
24.10029723178644
 20
114.9198673929123
  9
$LIMMIN
 10
0.0
 20
0.0
  9
$LIMMAX
 10
12.0
 20
9.0
  9
$ORTHOMODE
 70
     1
  9
$REGENMODE
 70
     1
  9
$FILLMODE
 70
     1
  9
$QTEXTMODE
 70
     0
  9
$MIRRTEXT
 70
     0
  9
$DRAGMODE
 70
     2
  9
$LTSCALE
 40
1.0
  9
$OSMODE
 70
    37
  9
$ATTMODE
 70
     1
  9
$TEXTSIZE
 40
0.2
  9
$TRACEWID
 40
0.05
  9
$TEXTSTYLE
  7
STANDARD
  9
$CLAYER
  8
0
  9
$CELTYPE
  6
BYLAYER
  9
$CECOLOR
 62
   256
  9
$DIMSCALE
 40
1.0
  9
$DIMASZ
 40
1.5
  9
$DIMEXO
 40
0.5
  9
$DIMDLI
 40
2.0
  9
$DIMRND
 40
0.0
  9
$DIMDLE
 40
0.0
  9
$DIMEXE
 40
0.5
  9
$DIMTP
 40
0.0
  9
$DIMTM
 40
0.0
  9
$DIMTXT
 40
2.0
  9
$DIMCEN
 40
0.0
  9
$DIMTSZ
 40
0.0
  9
$DIMTOL
 70
     0
  9
$DIMLIM
 70
     0
  9
$DIMTIH
 70
     0
  9
$DIMTOH
 70
     0
  9
$DIMSE1
 70
     0
  9
$DIMSE2
 70
     0
  9
$DIMTAD
 70
     1
  9
$DIMZIN
 70
     0
  9
$DIMBLK
  1

  9
$DIMASO
 70
     1
  9
$DIMSHO
 70
     1
  9
$DIMPOST
  1

  9
$DIMAPOST
  1

  9
$DIMALT
 70
     0
  9
$DIMALTD
 70
     2
  9
$DIMALTF
 40
25.4
  9
$DIMLFAC
 40
1.0
  9
$DIMTOFL
 70
     0
  9
$DIMTVP
 40
0.0
  9
$DIMTIX
 70
     0
  9
$DIMSOXD
 70
     0
  9
$DIMSAH
 70
     0
  9
$DIMBLK1
  1

  9
$DIMBLK2
  1

  9
$LUNITS
 70
     2
  9
$LUPREC
 70
     4
  9
$SKETCHINC
 40
0.1
  9
$FILLETRAD
 40
0.0
  9
$AUNITS
 70
     0
  9
$AUPREC
 70
     0
  9
$MENU
  1
.
  9
$ELEVATION
 40
0.0
  9
$THICKNESS
 40
0.0
  9
$LIMCHECK
 70
     0
  9
$CHAMFERA
 40
0.0
  9
$CHAMFERB
 40
0.0
  9
$SKPOLY
 70
     0
  9
$TDCREATE
 40
2453353.842125822
  9
$TDUPDATE
 40
2459503.465486771
  9
$TDINDWG
 40
0.0840601505
  9
$TDUSRTIMER
 40
0.0840254514
  9
$USRTIMER
 70
     1
  9
$ANGBASE
 50
0.0
  9
$ANGDIR
 70
     0
  9
$PDMODE
 70
     0
  9
$PDSIZE
 40
0.0
  9
$PLINEWID
 40
0.0
  9
$COORDS
 70
     1
  9
$SPLFRAME
 70
     0
  9
$SPLINETYPE
 70
     6
  9
$SPLINESEGS
 70
     8
  9
$ATTDIA
 70
     0
  9
$ATTREQ
 70
     1
  9
$HANDLING
 70
     1
  9
$HANDSEED
  5
2752
  9
$SURFTAB1
 70
     6
  9
$SURFTAB2
 70
     6
  9
$SURFTYPE
 70
     6
  9
$SURFU
 70
     6
  9
$SURFV
 70
     6
  9
$UCSNAME
  2

  9
$UCSORG
 10
0.0
 20
0.0
 30
0.0
  9
$UCSXDIR
 10
1.0
 20
0.0
 30
0.0
  9
$UCSYDIR
 10
0.0
 20
1.0
 30
0.0
  9
$USERI1
 70
     0
  9
$USERI2
 70
     0
  9
$USERI3
 70
     0
  9
$USERI4
 70
     0
  9
$USERI5
 70
     0
  9
$USERR1
 40
0.0
  9
$USERR2
 40
0.0
  9
$USERR3
 40
0.0
  9
$USERR4
 40
0.0
  9
$USERR5
 40
0.0
  9
$WORLDVIEW
 70
     1
  0
ENDSEC
  0
SECTION
  2
TABLES
  0
TABLE
  2
VPORT
 70
     1
  0
VPORT
  2
*ACTIVE
 70
     0
 10
0.0
 20
0.0
 11
1.0
 21
1.0
 12
4.788452823107409
 22
57.03128788457857
 13
0.0
 23
0.0
 14
0.5
 24
0.5
 15
0.5
 25
0.5
 16
0.0
 26
0.0
 36
1.0
 17
0.0
 27
0.0
 37
0.0
 40
118.0927021970007
 41
1.701534170153417
 42
50.0
 43
0.0
 44
0.0
 50
0.0
 51
0.0
 71
    16
 72
  1000
 73
     1
 74
     3
 75
     0
 76
     0
 77
     0
 78
     0
  0
ENDTAB
  0
TABLE
  2
LTYPE
 70
     1
  0
LTYPE
  2
CONTINUOUS
 70
     0
  3
Solid line
 72
    65
 73
     0
 40
0.0
  0
ENDTAB
  0
TABLE
  2
LAYER
 70
     2
  0
LAYER
  2
0
 70
     0
 62
     7
  6
CONTINUOUS
  0
LAYER
  2
DEFPOINTS
 70
     0
 62
     7
  6
CONTINUOUS
  0
ENDTAB
  0
TABLE
  2
STYLE
 70
     2
  0
STYLE
  2
STANDARD
 70
     0
 40
0.0
 41
1.0
 50
0.0
 71
     0
 42
0.2
  3
IC-txt.shx
  4

  0
STYLE
  2
돋움
 70
     0
 40
0.0
 41
1.0
 50
0.0
 71
     0
 42
0.2
  3
Dotum.ttf
  4

  0
ENDTAB
  0
TABLE
  2
VIEW
 70
     0
  0
ENDTAB
  0
TABLE
  2
UCS
 70
     0
  0
ENDTAB
  0
ENDSEC
  0
SECTION
  2
BLOCKS
  0
BLOCK
  8
0
  2
*D1
 70
     1
 10
0.0
 20
0.0
 30
0.0
  0
POINT
  5
26E8
  8
DEFPOINTS
  6
BYBLOCK
 62
     3
 10
-8.0
 20
109.5
 30
0.0
  0
POINT
  5
26E9
  8
DEFPOINTS
  6
BYBLOCK
 62
     3
 10
8.0
 20
109.5
 30
0.0
  0
LINE
  5
26EA
  8
0
  6
BYBLOCK
 62
     3
 10
-8.0
 20
110.0
 30
0.0
 11
-8.0
 21
113.1020365607158
 31
0.0
  0
LINE
  5
26EB
  8
0
  6
BYBLOCK
 62
     3
 10
8.0
 20
110.0
 30
0.0
 11
8.0
 21
113.1020365607158
 31
0.0
  0
LINE
  5
26EC
  8
0
  6
BYBLOCK
 62
     3
 10
-8.0
 20
112.6020365607158
 30
0.0
 11
8.0
 21
112.6020365607158
 31
0.0
  0
SOLID
  5
26ED
  8
0
  6
BYBLOCK
 62
     3
 10
-8.0
 20
112.6020365607158
 30
0.0
 11
-6.5
 21
112.3520365607158
 31
0.0
 12
-6.5
 22
112.8520365607159
 32
0.0
 13
-6.5
 23
112.8520365607159
 33
0.0
  0
SOLID
  5
26EE
  8
0
  6
BYBLOCK
 62
     3
 10
8.0
 20
112.6020365607158
 30
0.0
 11
6.5
 21
112.3520365607158
 31
0.0
 12
6.5
 22
112.8520365607159
 32
0.0
 13
6.5
 23
112.8520365607159
 33
0.0
  0
INSERT
  5
26EF
  8
0
  6
BYBLOCK
 62
     3
  2
*X6
 10
0.0
 20
0.0
 30
0.0
  0
ENDBLK
  8
0
  0
BLOCK
  8
0
  2
*D2
 70
     1
 10
0.0
 20
0.0
 30
0.0
  0
POINT
  5
26F8
  8
DEFPOINTS
  6
BYBLOCK
 62
     3
 10
7.5
 20
110.0
 30
0.0
  0
POINT
  5
26F9
  8
DEFPOINTS
  6
BYBLOCK
 62
     3
 10
0.0
 20
0.0
 30
0.0
  0
LINE
  5
26FA
  8
0
  6
BYBLOCK
 62
     3
 10
8.0
 20
110.0
 30
0.0
 11
24.10029723178644
 21
110.0
 31
0.0
  0
LINE
  5
26FB
  8
0
  6
BYBLOCK
 62
     3
 10
0.5
 20
0.0
 30
0.0
 11
24.10029723178644
 21
0.0
 31
0.0
  0
LINE
  5
26FC
  8
0
  6
BYBLOCK
 62
     3
 10
23.60029723178644
 20
110.0
 30
0.0
 11
23.60029723178644
 21
0.0
 31
0.0
  0
SOLID
  5
26FD
  8
0
  6
BYBLOCK
 62
     3
 10
23.60029723178644
 20
110.0
 30
0.0
 11
23.35029723178639
 21
108.5
 31
0.0
 12
23.85029723178649
 22
108.5
 32
0.0
 13
23.85029723178649
 23
108.5
 33
0.0
  0
SOLID
  5
26FE
  8
0
  6
BYBLOCK
 62
     3
 10
23.60029723178644
 20
0.0
 30
0.0
 11
23.35029723178639
 21
1.5
 31
0.0
 12
23.85029723178649
 22
1.5
 32
0.0
 13
23.85029723178649
 23
1.5
 33
0.0
  0
TEXT
  5
26FF
  8
0
  6
CONTINUOUS
 62
     3
 10
23.50622114482991
 20
52.80952380952381
 30
0.0
 40
2.0
  1
110
 50
90.0
  7
돋움
  0
ENDBLK
  8
0
  0
BLOCK
  8
0
  2
*D3
 70
     1
 10
0.0
 20
0.0
 30
0.0
  0
POINT
  5
26D7
  8
DEFPOINTS
  6
BYBLOCK
 62
     3
 10
7.015373667097919
 20
30.0
 30
0.0
  0
POINT
  5
26D8
  8
DEFPOINTS
  6
BYBLOCK
 62
     3
 10
0.0
 20
0.0
 30
0.0
  0
LINE
  5
26D9
  8
0
  6
BYBLOCK
 62
     3
 10
7.515373667097919
 20
30.0
 30
0.0
 11
16.57264843279808
 21
30.0
 31
0.0
  0
LINE
  5
26DA
  8
0
  6
BYBLOCK
 62
     3
 10
0.5
 20
0.0
 30
0.0
 11
16.57264843279808
 21
0.0
 31
0.0
  0
LINE
  5
26DB
  8
0
  6
BYBLOCK
 62
     3
 10
16.07264843279808
 20
30.0
 30
0.0
 11
16.07264843279808
 21
0.0
 31
0.0
  0
SOLID
  5
26DC
  8
0
  6
BYBLOCK
 62
     3
 10
16.07264843279808
 20
30.0
 30
0.0
 11
15.82264843279803
 21
28.5
 31
0.0
 12
16.32264843279813
 22
28.5
 32
0.0
 13
16.32264843279813
 23
28.5
 33
0.0
  0
SOLID
  5
26DD
  8
0
  6
BYBLOCK
 62
     3
 10
16.07264843279808
 20
0.0
 30
0.0
 11
15.82264843279803
 21
1.5
 31
0.0
 12
16.32264843279813
 22
1.5
 32
0.0
 13
16.32264843279813
 23
1.5
 33
0.0
  0
TEXT
  5
26DE
  8
0
  6
CONTINUOUS
 62
     3
 10
15.97857234584156
 20
9.380952380952381
 30
0.0
 40
2.0
  1
30
 50
90.0
  7
돋움
  0
ENDBLK
  8
0
  0
BLOCK
  8
0
  2
*D5
 70
     1
 10
0.0
 20
0.0
 30
0.0
  0
LINE
  5
2714
  8
0
  6
BYBLOCK
 62
     3
 10
-8.014444249251428
 20
2.899148759702877
 30
0.0
 11
-13.91655364444863
 21
-0.8572916237551372
 31
0.0
  0
LINE
  5
2715
  8
0
  6
BYBLOCK
 62
     3
 10
-12.44910340050388
 20
0.0766777400718032
 30
0.0
 11
-12.44910340050388
 21
0.0766777400718032
 31
0.0
  0
SOLID
  5
2716
  8
0
  6
BYBLOCK
 62
     3
 10
-6.749005683580149
 20
3.704546323960317
 30
0.0
 11
-8.148677176627695
 21
3.110055187314799
 31
0.0
 12
-7.880211321875161
 22
2.688242332090955
 32
0.0
 13
-7.880211321875161
 23
2.688242332090955
 33
0.0
  0
TEXT
  5
2717
  8
0
  6
CONTINUOUS
 62
     3
 10
-13.90347010510519
 20
-0.7422821284961856
 30
0.0
 40
2.0
  1
R8
 50
32.47501027121843
  7
돋움
  0
POINT
  5
2718
  8
DEFPOINTS
  6
BYBLOCK
 62
     3
 10
0.0000000000000015
 20
8.0
 30
0.0
  0
POINT
  5
2719
  8
DEFPOINTS
  6
BYBLOCK
 62
     3
 10
-6.749005683580149
 20
3.704546323960317
 30
0.0
  0
ENDBLK
  8
0
  0
BLOCK
  8
0
  2
*X6
 70
     1
 10
0.0
 20
0.0
 30
0.0
  0
TEXT
  5
274E
  8
0
  6
CONTINUOUS
 62
     3
 10
-2.61639521225761
 20
112.805951976814
 30
0.0
 40
2.0
  1
\U+2205
  0
TEXT
  5
274F
  8
0
  6
CONTINUOUS
 62
     3
 10
-0.8068714027338011
 20
112.805951976814
 30
0.0
 40
2.0
  1
16
  0
ENDBLK
  8
0
  0
ENDSEC
  0
SECTION
  2
ENTITIES
  0
LINE
  5
394
  8
0
 10
-7.5
 20
110.0
 30
0.0
 11
7.5
 21
110.0
 31
0.0
  0
ARC
  5
397
  8
0
 10
0.0000000000000015
 20
8.0
 30
0.0
 40
8.0
 50
180.0
 51
0.0000000000008142
  0
LINE
  5
39C
  8
0
 10
-8.0
 20
109.5
 30
0.0
 11
8.0
 21
109.5
 31
0.0
  0
LINE
  5
39D
  8
0
 10
-8.0
 20
109.5
 30
0.0
 11
-7.5
 21
110.0
 31
0.0
  0
LINE
  5
39E
  8
0
 10
8.0
 20
109.5
 30
0.0
 11
7.5
 21
110.0
 31
0.0
  0
DIMENSION
  5
39F
  8
0
  2
*D1
 10
8.0
 20
112.6020365607158
 30
0.0
 11
-0.3306809265433253
 21
112.6020365607158
 31
0.0
 70
   160
  1
{\fArial|b0|i0|c0|p32;%%c\f\U+B3CB\U+C6C0|b0|i0|c129|p0;<>}
 13
-8.0
 23
109.5
 33
0.0
 14
8.0
 24
109.5
 34
0.0
  0
DIMENSION
  5
89F
  8
0
  2
*D2
 10
23.60029723178644
 20
-0.0000000000000014
 30
0.0
 11
22.50622114482992
 21
55.0
 31
0.0
 70
    32
 13
7.5
 23
110.0
 33
0.0
 14
0.0
 24
0.0
 34
0.0
 50
90.0
  0
DIMENSION
  5
13E8
  8
0
  2
*D3
 10
16.07264843279808
 20
0.0
 30
0.0
 11
16.07264843279808
 21
11.0
 31
0.0
 70
   160
 13
7.015373667097919
 23
30.0
 33
0.0
 14
0.0
 24
0.0
 34
0.0
 50
90.0
  0
LINE
  5
1F92
  8
0
 10
-8.0
 20
109.5
 30
0.0
 11
-8.000000000000004
 21
8.000000000000004
 31
0.0
  0
LINE
  5
1F93
  8
0
 10
8.0
 20
109.5
 30
0.0
 11
7.999999999999996
 21
8.000000000000089
 31
0.0
  0
LINE
  5
262B
  8
0
  6
BYBLOCK
 62
     3
 10
0.0000000000000015
 20
8.0
 30
0.0
 11
0.0000000000000015
 21
8.0
 31
0.0
  0
LINE
  5
262C
  8
0
  6
BYBLOCK
 62
     3
 10
0.0000000000000015
 20
8.0
 30
0.0
 11
0.0000000000000015
 21
8.0
 31
0.0
  0
DIMENSION
  5
2700
  8
0
  2
*D5
 10
0.0000000000000015
 20
8.0
 30
0.0
 11
-12.44910340050388
 21
0.0766777400718032
 31
0.0
 70
   164
 15
-6.749005683580149
 25
3.704546323960317
 35
0.0
 40
0.0
  0
LINE
  5
270C
  8
0
  6
BYBLOCK
 62
     3
 10
0.0000000000000015
 20
8.0
 30
0.0
 11
0.0000000000000015
 21
8.0
 31
0.0
  0
LINE
  5
270D
  8
0
  6
BYBLOCK
 62
     3
 10
0.0000000000000015
 20
8.0
 30
0.0
 11
0.0000000000000015
 21
8.0
 31
0.0
  0
ENDSEC
  0
EOF
