  0
SECTION
  2
HEADER
  9
$ACADVER
  1
AC1006
  9
$DWGCODEPAGE
  3
ansi_949
  9
$INSBASE
 10
0.0
 20
0.0
 30
0.0
  9
$EXTMIN
 10
-9.878461129317811
 20
-5.739152365792235
  9
$EXTMAX
 10
14.8196194236415
 20
74.80073221288971
  9
$LIMMIN
 10
0.0
 20
0.0
  9
$LIMMAX
 10
12.0
 20
9.0
  9
$ORTHOMODE
 70
     1
  9
$REGENMODE
 70
     1
  9
$FILLMODE
 70
     1
  9
$QTEXTMODE
 70
     0
  9
$MIRRTEXT
 70
     0
  9
$DRAGMODE
 70
     2
  9
$LTSCALE
 40
1.0
  9
$OSMODE
 70
    37
  9
$ATTMODE
 70
     1
  9
$TEXTSIZE
 40
0.2
  9
$TRACEWID
 40
0.05
  9
$TEXTSTYLE
  7
STANDARD
  9
$CLAYER
  8
0
  9
$CELTYPE
  6
BYLAYER
  9
$CECOLOR
 62
   256
  9
$DIMSCALE
 40
1.0
  9
$DIMASZ
 40
1.5
  9
$DIMEXO
 40
0.5
  9
$DIMDLI
 40
2.0
  9
$DIMRND
 40
0.0
  9
$DIMDLE
 40
0.0
  9
$DIMEXE
 40
0.5
  9
$DIMTP
 40
0.0
  9
$DIMTM
 40
0.0
  9
$DIMTXT
 40
2.0
  9
$DIMCEN
 40
0.0
  9
$DIMTSZ
 40
0.0
  9
$DIMTOL
 70
     0
  9
$DIMLIM
 70
     0
  9
$DIMTIH
 70
     0
  9
$DIMTOH
 70
     0
  9
$DIMSE1
 70
     0
  9
$DIMSE2
 70
     0
  9
$DIMTAD
 70
     1
  9
$DIMZIN
 70
     0
  9
$DIMBLK
  1

  9
$DIMASO
 70
     1
  9
$DIMSHO
 70
     1
  9
$DIMPOST
  1

  9
$DIMAPOST
  1

  9
$DIMALT
 70
     0
  9
$DIMALTD
 70
     2
  9
$DIMALTF
 40
25.4
  9
$DIMLFAC
 40
1.0
  9
$DIMTOFL
 70
     0
  9
$DIMTVP
 40
0.0
  9
$DIMTIX
 70
     0
  9
$DIMSOXD
 70
     0
  9
$DIMSAH
 70
     0
  9
$DIMBLK1
  1

  9
$DIMBLK2
  1

  9
$LUNITS
 70
     2
  9
$LUPREC
 70
     4
  9
$SKETCHINC
 40
0.1
  9
$FILLETRAD
 40
1.0
  9
$AUNITS
 70
     0
  9
$AUPREC
 70
     0
  9
$MENU
  1
.
  9
$ELEVATION
 40
0.0
  9
$THICKNESS
 40
0.0
  9
$LIMCHECK
 70
     0
  9
$CHAMFERA
 40
0.0
  9
$CHAMFERB
 40
0.0
  9
$SKPOLY
 70
     0
  9
$TDCREATE
 40
2453353.842125822
  9
$TDUPDATE
 40
2459506.204696076
  9
$TDINDWG
 40
0.0904375116
  9
$TDUSRTIMER
 40
0.0904027431
  9
$USRTIMER
 70
     1
  9
$ANGBASE
 50
0.0
  9
$ANGDIR
 70
     0
  9
$PDMODE
 70
     0
  9
$PDSIZE
 40
0.0
  9
$PLINEWID
 40
0.0
  9
$COORDS
 70
     1
  9
$SPLFRAME
 70
     0
  9
$SPLINETYPE
 70
     6
  9
$SPLINESEGS
 70
     8
  9
$ATTDIA
 70
     0
  9
$ATTREQ
 70
     1
  9
$HANDLING
 70
     1
  9
$HANDSEED
  5
3771
  9
$SURFTAB1
 70
     6
  9
$SURFTAB2
 70
     6
  9
$SURFTYPE
 70
     6
  9
$SURFU
 70
     6
  9
$SURFV
 70
     6
  9
$UCSNAME
  2

  9
$UCSORG
 10
0.0
 20
0.0
 30
0.0
  9
$UCSXDIR
 10
1.0
 20
0.0
 30
0.0
  9
$UCSYDIR
 10
0.0
 20
1.0
 30
0.0
  9
$USERI1
 70
     0
  9
$USERI2
 70
     0
  9
$USERI3
 70
     0
  9
$USERI4
 70
     0
  9
$USERI5
 70
     0
  9
$USERR1
 40
0.0
  9
$USERR2
 40
0.0
  9
$USERR3
 40
0.0
  9
$USERR4
 40
0.0
  9
$USERR5
 40
0.0
  9
$WORLDVIEW
 70
     1
  0
ENDSEC
  0
SECTION
  2
TABLES
  0
TABLE
  2
VPORT
 70
     1
  0
VPORT
  2
*ACTIVE
 70
     0
 10
0.0
 20
0.0
 11
1.0
 21
1.0
 12
2.470579147161843
 22
34.53078992354874
 13
0.0
 23
0.0
 14
0.5
 24
0.5
 15
0.5
 25
0.5
 16
0.0
 26
0.0
 36
1.0
 17
0.0
 27
0.0
 37
0.0
 40
82.15068227025559
 41
1.701534170153416
 42
50.0
 43
0.0
 44
0.0
 50
0.0
 51
0.0
 71
    16
 72
  1000
 73
     1
 74
     3
 75
     0
 76
     0
 77
     0
 78
     0
  0
ENDTAB
  0
TABLE
  2
LTYPE
 70
     1
  0
LTYPE
  2
CONTINUOUS
 70
     0
  3
Solid line
 72
    65
 73
     0
 40
0.0
  0
ENDTAB
  0
TABLE
  2
LAYER
 70
     2
  0
LAYER
  2
0
 70
     0
 62
     7
  6
CONTINUOUS
  0
LAYER
  2
DEFPOINTS
 70
     0
 62
     7
  6
CONTINUOUS
  0
ENDTAB
  0
TABLE
  2
STYLE
 70
     2
  0
STYLE
  2
STANDARD
 70
     0
 40
0.0
 41
1.0
 50
0.0
 71
     0
 42
0.2
  3
IC-txt.shx
  4

  0
STYLE
  2
돋움
 70
     0
 40
0.0
 41
1.0
 50
0.0
 71
     0
 42
0.2
  3
Dotum.ttf
  4

  0
ENDTAB
  0
TABLE
  2
VIEW
 70
     0
  0
ENDTAB
  0
TABLE
  2
UCS
 70
     0
  0
ENDTAB
  0
ENDSEC
  0
SECTION
  2
BLOCKS
  0
BLOCK
  8
0
  2
*D1
 70
     1
 10
0.0
 20
0.0
 30
0.0
  0
POINT
  5
36EA
  8
DEFPOINTS
  6
BYBLOCK
 62
     3
 10
-3.0
 20
69.5
 30
0.0
  0
POINT
  5
36EB
  8
DEFPOINTS
  6
BYBLOCK
 62
     3
 10
3.0
 20
69.5
 30
0.0
  0
LINE
  5
36EC
  8
0
  6
BYBLOCK
 62
     3
 10
-3.0
 20
70.0
 30
0.0
 11
-3.0
 21
73.1020365607158
 31
0.0
  0
LINE
  5
36ED
  8
0
  6
BYBLOCK
 62
     3
 10
3.0
 20
70.0
 30
0.0
 11
3.0
 21
73.1020365607158
 31
0.0
  0
LINE
  5
36EE
  8
0
  6
BYBLOCK
 62
     3
 10
-3.0
 20
72.6020365607158
 30
0.0
 11
3.0
 21
72.6020365607158
 31
0.0
  0
SOLID
  5
36EF
  8
0
  6
BYBLOCK
 62
     3
 10
-3.0
 20
72.6020365607158
 30
0.0
 11
-1.5
 21
72.35203656071575
 31
0.0
 12
-1.5
 22
72.85203656071586
 32
0.0
 13
-1.5
 23
72.85203656071586
 33
0.0
  0
SOLID
  5
36F0
  8
0
  6
BYBLOCK
 62
     3
 10
3.0
 20
72.6020365607158
 30
0.0
 11
1.5
 21
72.35203656071575
 31
0.0
 12
1.5
 22
72.85203656071586
 32
0.0
 13
1.5
 23
72.85203656071586
 33
0.0
  0
INSERT
  5
36F1
  8
0
  6
BYBLOCK
 62
     3
  2
*X15
 10
0.0
 20
0.0
 30
0.0
  0
ENDBLK
  8
0
  0
BLOCK
  8
0
  2
*D2
 70
     1
 10
0.0
 20
0.0
 30
0.0
  0
POINT
  5
36FA
  8
DEFPOINTS
  6
BYBLOCK
 62
     3
 10
2.5
 20
70.0
 30
0.0
  0
POINT
  5
36FB
  8
DEFPOINTS
  6
BYBLOCK
 62
     3
 10
2.025886473839717
 20
0.0000000000000071
 30
0.0
  0
LINE
  5
36FC
  8
0
  6
BYBLOCK
 62
     3
 10
3.0
 20
70.0
 30
0.0
 11
14.8196194236415
 21
70.0
 31
0.0
  0
LINE
  5
36FD
  8
0
  6
BYBLOCK
 62
     3
 10
2.525886473839717
 20
0.0
 30
0.0
 11
14.8196194236415
 21
0.0
 31
0.0
  0
LINE
  5
36FE
  8
0
  6
BYBLOCK
 62
     3
 10
14.3196194236415
 20
70.0
 30
0.0
 11
14.3196194236415
 21
0.0
 31
0.0
  0
SOLID
  5
36FF
  8
0
  6
BYBLOCK
 62
     3
 10
14.3196194236415
 20
70.0
 30
0.0
 11
14.06961942364145
 21
68.5
 31
0.0
 12
14.56961942364155
 22
68.5
 32
0.0
 13
14.56961942364155
 23
68.5
 33
0.0
  0
SOLID
  5
3700
  8
0
  6
BYBLOCK
 62
     3
 10
14.3196194236415
 20
0.0
 30
0.0
 11
14.06961942364145
 21
1.5
 31
0.0
 12
14.56961942364155
 22
1.5
 32
0.0
 13
14.56961942364155
 23
1.5
 33
0.0
  0
TEXT
  5
3701
  8
0
  6
CONTINUOUS
 62
     3
 10
14.22554333668498
 20
33.38095238095238
 30
0.0
 40
2.0
  1
70
 50
90.0
  7
돋움
  0
ENDBLK
  8
0
  0
BLOCK
  8
0
  2
*D3
 70
     1
 10
0.0
 20
0.0
 30
0.0
  0
POINT
  5
300B
  8
DEFPOINTS
  6
BYBLOCK
 62
     3
 10
-2.500000000000002
 20
0.199999999999993
 30
0.0
  0
POINT
  5
300C
  8
DEFPOINTS
  6
BYBLOCK
 62
     3
 10
2.500000000000002
 20
0.2000000000000122
 30
0.0
  0
LINE
  5
300D
  8
0
  6
BYBLOCK
 62
     3
 10
-2.500000000000002
 20
-0.3000000000000069
 30
0.0
 11
-2.500000000000002
 21
-5.739152365792235
 31
0.0
  0
LINE
  5
300E
  8
0
  6
BYBLOCK
 62
     3
 10
2.500000000000002
 20
-0.2999999999999878
 30
0.0
 11
2.500000000000002
 21
-5.739152365792235
 31
0.0
  0
LINE
  5
300F
  8
0
  6
BYBLOCK
 62
     3
 10
-2.500000000000002
 20
-5.239152365792235
 30
0.0
 11
2.500000000000002
 21
-5.239152365792235
 31
0.0
  0
SOLID
  5
3010
  8
0
  6
BYBLOCK
 62
     3
 10
-2.500000000000002
 20
-5.239152365792235
 30
0.0
 11
-1.000000000000002
 21
-5.489152365792284
 31
0.0
 12
-1.000000000000002
 22
-4.989152365792185
 32
0.0
 13
-1.000000000000002
 23
-4.989152365792185
 33
0.0
  0
SOLID
  5
3011
  8
0
  6
BYBLOCK
 62
     3
 10
2.500000000000002
 20
-5.239152365792235
 30
0.0
 11
1.000000000000002
 21
-5.489152365792284
 31
0.0
 12
1.000000000000002
 22
-4.989152365792185
 32
0.0
 13
1.000000000000002
 23
-4.989152365792185
 33
0.0
  0
INSERT
  5
3012
  8
0
  6
BYBLOCK
 62
     3
  2
*X16
 10
0.0
 20
0.0
 30
0.0
  0
ENDBLK
  8
0
  0
BLOCK
  8
0
  2
*D4
 70
     1
 10
0.0
 20
0.0
 30
0.0
  0
POINT
  5
367A
  8
DEFPOINTS
  6
BYBLOCK
 62
     3
 10
2.275886473839717
 20
0.0000000000000071
 30
0.0
  0
POINT
  5
367B
  8
DEFPOINTS
  6
BYBLOCK
 62
     3
 10
2.500000000000002
 20
25.0
 30
0.0
  0
LINE
  5
367C
  8
0
  6
BYBLOCK
 62
     3
 10
2.775886473839717
 20
0.0000000000000071
 30
0.0
 11
12.13103372962518
 21
0.0000000000000071
 31
0.0
  0
LINE
  5
367D
  8
0
  6
BYBLOCK
 62
     3
 10
3.000000000000002
 20
25.0
 30
0.0
 11
12.13103372962518
 21
25.0
 31
0.0
  0
LINE
  5
367E
  8
0
  6
BYBLOCK
 62
     3
 10
11.63103372962518
 20
0.0000000000000071
 30
0.0
 11
11.63103372962518
 21
25.0
 31
0.0
  0
SOLID
  5
367F
  8
0
  6
BYBLOCK
 62
     3
 10
11.63103372962518
 20
0.0000000000000071
 30
0.0
 11
11.88103372962523
 21
1.500000000000007
 31
0.0
 12
11.38103372962513
 22
1.500000000000007
 32
0.0
 13
11.38103372962513
 23
1.500000000000007
 33
0.0
  0
SOLID
  5
3680
  8
0
  6
BYBLOCK
 62
     3
 10
11.63103372962518
 20
25.0
 30
0.0
 11
11.88103372962523
 21
23.5
 31
0.0
 12
11.38103372962513
 22
23.5
 32
0.0
 13
11.38103372962513
 23
23.5
 33
0.0
  0
TEXT
  5
3681
  8
0
  6
CONTINUOUS
 62
     3
 10
11.53695764266866
 20
10.88095238095238
 30
0.0
 40
2.0
  1
25
 50
90.0
  7
돋움
  0
ENDBLK
  8
0
  0
BLOCK
  8
0
  2
*D6
 70
     1
 10
0.0
 20
0.0
 30
0.0
  0
POINT
  5
368A
  8
DEFPOINTS
  6
BYBLOCK
 62
     3
 10
2.275886473839717
 20
0.0000000000000071
 30
0.0
  0
POINT
  5
368B
  8
DEFPOINTS
  6
BYBLOCK
 62
     3
 10
2.500000000000002
 20
25.0
 30
0.0
  0
LINE
  5
368C
  8
0
  6
BYBLOCK
 62
     3
 10
2.775886473839717
 20
0.0000000000000071
 30
0.0
 11
12.13103372962518
 21
0.0000000000000071
 31
0.0
  0
LINE
  5
368D
  8
0
  6
BYBLOCK
 62
     3
 10
3.000000000000002
 20
25.0
 30
0.0
 11
12.13103372962518
 21
25.0
 31
0.0
  0
LINE
  5
368E
  8
0
  6
BYBLOCK
 62
     3
 10
11.63103372962518
 20
0.0000000000000071
 30
0.0
 11
11.63103372962518
 21
25.0
 31
0.0
  0
SOLID
  5
368F
  8
0
  6
BYBLOCK
 62
     3
 10
11.63103372962518
 20
0.0000000000000071
 30
0.0
 11
11.88103372962523
 21
1.500000000000007
 31
0.0
 12
11.38103372962513
 22
1.500000000000007
 32
0.0
 13
11.38103372962513
 23
1.500000000000007
 33
0.0
  0
SOLID
  5
3690
  8
0
  6
BYBLOCK
 62
     3
 10
11.63103372962518
 20
25.0
 30
0.0
 11
11.88103372962523
 21
23.5
 31
0.0
 12
11.38103372962513
 22
23.5
 32
0.0
 13
11.38103372962513
 23
23.5
 33
0.0
  0
TEXT
  5
3691
  8
0
  6
CONTINUOUS
 62
     3
 10
11.53695764266866
 20
10.88095238095238
 30
0.0
 40
2.0
  1
25
 50
90.0
  7
돋움
  0
ENDBLK
  8
0
  0
BLOCK
  8
0
  2
*D7
 70
     1
 10
0.0
 20
0.0
 30
0.0
  0
POINT
  5
369A
  8
DEFPOINTS
  6
BYBLOCK
 62
     3
 10
2.275886473839717
 20
0.0000000000000071
 30
0.0
  0
POINT
  5
369B
  8
DEFPOINTS
  6
BYBLOCK
 62
     3
 10
2.500000000000002
 20
25.0
 30
0.0
  0
LINE
  5
369C
  8
0
  6
BYBLOCK
 62
     3
 10
2.775886473839717
 20
0.0000000000000071
 30
0.0
 11
12.13103372962518
 21
0.0000000000000071
 31
0.0
  0
LINE
  5
369D
  8
0
  6
BYBLOCK
 62
     3
 10
3.000000000000002
 20
25.0
 30
0.0
 11
12.13103372962518
 21
25.0
 31
0.0
  0
LINE
  5
369E
  8
0
  6
BYBLOCK
 62
     3
 10
11.63103372962518
 20
0.0000000000000071
 30
0.0
 11
11.63103372962518
 21
25.0
 31
0.0
  0
SOLID
  5
369F
  8
0
  6
BYBLOCK
 62
     3
 10
11.63103372962518
 20
0.0000000000000071
 30
0.0
 11
11.88103372962523
 21
1.500000000000007
 31
0.0
 12
11.38103372962513
 22
1.500000000000007
 32
0.0
 13
11.38103372962513
 23
1.500000000000007
 33
0.0
  0
SOLID
  5
36A0
  8
0
  6
BYBLOCK
 62
     3
 10
11.63103372962518
 20
25.0
 30
0.0
 11
11.88103372962523
 21
23.5
 31
0.0
 12
11.38103372962513
 22
23.5
 32
0.0
 13
11.38103372962513
 23
23.5
 33
0.0
  0
TEXT
  5
36A1
  8
0
  6
CONTINUOUS
 62
     3
 10
11.53695764266866
 20
10.88095238095238
 30
0.0
 40
2.0
  1
25
 50
90.0
  7
돋움
  0
ENDBLK
  8
0
  0
BLOCK
  8
0
  2
*D8
 70
     1
 10
0.0
 20
0.0
 30
0.0
  0
POINT
  5
36AA
  8
DEFPOINTS
  6
BYBLOCK
 62
     3
 10
2.275886473839717
 20
0.0000000000000071
 30
0.0
  0
POINT
  5
36AB
  8
DEFPOINTS
  6
BYBLOCK
 62
     3
 10
2.500000000000002
 20
25.0
 30
0.0
  0
LINE
  5
36AC
  8
0
  6
BYBLOCK
 62
     3
 10
2.775886473839717
 20
0.0000000000000071
 30
0.0
 11
12.13103372962518
 21
0.0000000000000071
 31
0.0
  0
LINE
  5
36AD
  8
0
  6
BYBLOCK
 62
     3
 10
3.000000000000002
 20
25.0
 30
0.0
 11
12.13103372962518
 21
25.0
 31
0.0
  0
LINE
  5
36AE
  8
0
  6
BYBLOCK
 62
     3
 10
11.63103372962518
 20
0.0000000000000071
 30
0.0
 11
11.63103372962518
 21
25.0
 31
0.0
  0
SOLID
  5
36AF
  8
0
  6
BYBLOCK
 62
     3
 10
11.63103372962518
 20
0.0000000000000071
 30
0.0
 11
11.88103372962523
 21
1.500000000000007
 31
0.0
 12
11.38103372962513
 22
1.500000000000007
 32
0.0
 13
11.38103372962513
 23
1.500000000000007
 33
0.0
  0
SOLID
  5
36B0
  8
0
  6
BYBLOCK
 62
     3
 10
11.63103372962518
 20
25.0
 30
0.0
 11
11.88103372962523
 21
23.5
 31
0.0
 12
11.38103372962513
 22
23.5
 32
0.0
 13
11.38103372962513
 23
23.5
 33
0.0
  0
TEXT
  5
36B1
  8
0
  6
CONTINUOUS
 62
     3
 10
11.53695764266866
 20
10.88095238095238
 30
0.0
 40
2.0
  1
25
 50
90.0
  7
돋움
  0
ENDBLK
  8
0
  0
BLOCK
  8
0
  2
*D9
 70
     1
 10
0.0
 20
0.0
 30
0.0
  0
POINT
  5
36BA
  8
DEFPOINTS
  6
BYBLOCK
 62
     3
 10
2.275886473839717
 20
0.0000000000000071
 30
0.0
  0
POINT
  5
36BB
  8
DEFPOINTS
  6
BYBLOCK
 62
     3
 10
2.500000000000002
 20
25.0
 30
0.0
  0
LINE
  5
36BC
  8
0
  6
BYBLOCK
 62
     3
 10
2.775886473839717
 20
0.0000000000000071
 30
0.0
 11
12.13103372962518
 21
0.0000000000000071
 31
0.0
  0
LINE
  5
36BD
  8
0
  6
BYBLOCK
 62
     3
 10
3.000000000000002
 20
25.0
 30
0.0
 11
12.13103372962518
 21
25.0
 31
0.0
  0
LINE
  5
36BE
  8
0
  6
BYBLOCK
 62
     3
 10
11.63103372962518
 20
0.0000000000000071
 30
0.0
 11
11.63103372962518
 21
25.0
 31
0.0
  0
SOLID
  5
36BF
  8
0
  6
BYBLOCK
 62
     3
 10
11.63103372962518
 20
0.0000000000000071
 30
0.0
 11
11.88103372962523
 21
1.500000000000007
 31
0.0
 12
11.38103372962513
 22
1.500000000000007
 32
0.0
 13
11.38103372962513
 23
1.500000000000007
 33
0.0
  0
SOLID
  5
36C0
  8
0
  6
BYBLOCK
 62
     3
 10
11.63103372962518
 20
25.0
 30
0.0
 11
11.88103372962523
 21
23.5
 31
0.0
 12
11.38103372962513
 22
23.5
 32
0.0
 13
11.38103372962513
 23
23.5
 33
0.0
  0
TEXT
  5
36C1
  8
0
  6
CONTINUOUS
 62
     3
 10
11.53695764266866
 20
10.88095238095238
 30
0.0
 40
2.0
  1
25
 50
90.0
  7
돋움
  0
ENDBLK
  8
0
  0
BLOCK
  8
0
  2
*D10
 70
     1
 10
0.0
 20
0.0
 30
0.0
  0
POINT
  5
36CA
  8
DEFPOINTS
  6
BYBLOCK
 62
     3
 10
2.275886473839717
 20
0.0000000000000071
 30
0.0
  0
POINT
  5
36CB
  8
DEFPOINTS
  6
BYBLOCK
 62
     3
 10
2.500000000000002
 20
25.0
 30
0.0
  0
LINE
  5
36CC
  8
0
  6
BYBLOCK
 62
     3
 10
2.775886473839717
 20
0.0000000000000071
 30
0.0
 11
12.13103372962518
 21
0.0000000000000071
 31
0.0
  0
LINE
  5
36CD
  8
0
  6
BYBLOCK
 62
     3
 10
3.000000000000002
 20
25.0
 30
0.0
 11
12.13103372962518
 21
25.0
 31
0.0
  0
LINE
  5
36CE
  8
0
  6
BYBLOCK
 62
     3
 10
11.63103372962518
 20
0.0000000000000071
 30
0.0
 11
11.63103372962518
 21
25.0
 31
0.0
  0
SOLID
  5
36CF
  8
0
  6
BYBLOCK
 62
     3
 10
11.63103372962518
 20
0.0000000000000071
 30
0.0
 11
11.88103372962523
 21
1.500000000000007
 31
0.0
 12
11.38103372962513
 22
1.500000000000007
 32
0.0
 13
11.38103372962513
 23
1.500000000000007
 33
0.0
  0
SOLID
  5
36D0
  8
0
  6
BYBLOCK
 62
     3
 10
11.63103372962518
 20
25.0
 30
0.0
 11
11.88103372962523
 21
23.5
 31
0.0
 12
11.38103372962513
 22
23.5
 32
0.0
 13
11.38103372962513
 23
23.5
 33
0.0
  0
TEXT
  5
36D1
  8
0
  6
CONTINUOUS
 62
     3
 10
11.53695764266866
 20
10.88095238095238
 30
0.0
 40
2.0
  1
25
 50
90.0
  7
돋움
  0
ENDBLK
  8
0
  0
BLOCK
  8
0
  2
*D11
 70
     1
 10
0.0
 20
0.0
 30
0.0
  0
POINT
  5
36DA
  8
DEFPOINTS
  6
BYBLOCK
 62
     3
 10
2.275886473839717
 20
0.0000000000000071
 30
0.0
  0
POINT
  5
36DB
  8
DEFPOINTS
  6
BYBLOCK
 62
     3
 10
2.500000000000002
 20
25.0
 30
0.0
  0
LINE
  5
36DC
  8
0
  6
BYBLOCK
 62
     3
 10
2.775886473839717
 20
0.0000000000000071
 30
0.0
 11
12.13103372962518
 21
0.0000000000000071
 31
0.0
  0
LINE
  5
36DD
  8
0
  6
BYBLOCK
 62
     3
 10
3.000000000000002
 20
25.0
 30
0.0
 11
12.13103372962518
 21
25.0
 31
0.0
  0
LINE
  5
36DE
  8
0
  6
BYBLOCK
 62
     3
 10
11.63103372962518
 20
0.0000000000000071
 30
0.0
 11
11.63103372962518
 21
25.0
 31
0.0
  0
SOLID
  5
36DF
  8
0
  6
BYBLOCK
 62
     3
 10
11.63103372962518
 20
0.0000000000000071
 30
0.0
 11
11.88103372962523
 21
1.500000000000007
 31
0.0
 12
11.38103372962513
 22
1.500000000000007
 32
0.0
 13
11.38103372962513
 23
1.500000000000007
 33
0.0
  0
SOLID
  5
36E0
  8
0
  6
BYBLOCK
 62
     3
 10
11.63103372962518
 20
25.0
 30
0.0
 11
11.88103372962523
 21
23.5
 31
0.0
 12
11.38103372962513
 22
23.5
 32
0.0
 13
11.38103372962513
 23
23.5
 33
0.0
  0
TEXT
  5
36E1
  8
0
  6
CONTINUOUS
 62
     3
 10
11.53695764266866
 20
10.88095238095238
 30
0.0
 40
2.0
  1
25
 50
90.0
  7
돋움
  0
ENDBLK
  8
0
  0
BLOCK
  8
0
  2
*D12
 70
     1
 10
0.0
 20
0.0
 30
0.0
  0
POINT
  5
3632
  8
DEFPOINTS
  6
BYBLOCK
 62
     3
 10
2.500000000000002
 20
7.5
 30
0.0
  0
POINT
  5
3633
  8
DEFPOINTS
  6
BYBLOCK
 62
     3
 10
2.275886473839717
 20
0.0000000000000071
 30
0.0
  0
LINE
  5
3634
  8
0
  6
BYBLOCK
 62
     3
 10
3.000000000000002
 20
7.5
 30
0.0
 11
9.034892747108412
 21
7.5
 31
0.0
  0
LINE
  5
3635
  8
0
  6
BYBLOCK
 62
     3
 10
2.775886473839717
 20
0.0000000000000071
 30
0.0
 11
9.034892747108412
 21
0.0000000000000071
 31
0.0
  0
LINE
  5
3636
  8
0
  6
BYBLOCK
 62
     3
 10
8.534892747108412
 20
7.5
 30
0.0
 11
8.534892747108412
 21
0.0000000000000071
 31
0.0
  0
SOLID
  5
3637
  8
0
  6
BYBLOCK
 62
     3
 10
8.534892747108412
 20
7.5
 30
0.0
 11
8.284892747108362
 21
6.0
 31
0.0
 12
8.784892747108461
 22
6.0
 32
0.0
 13
8.784892747108461
 23
6.0
 33
0.0
  0
SOLID
  5
3638
  8
0
  6
BYBLOCK
 62
     3
 10
8.534892747108412
 20
0.0000000000000071
 30
0.0
 11
8.284892747108362
 21
1.500000000000007
 31
0.0
 12
8.784892747108461
 22
1.500000000000007
 32
0.0
 13
8.784892747108461
 23
1.500000000000007
 33
0.0
  0
TEXT
  5
3639
  8
0
  6
CONTINUOUS
 62
     3
 10
8.44081666015189
 20
1.654761904761909
 30
0.0
 40
2.0
  1
7.5
 50
90.0
  7
돋움
  0
ENDBLK
  8
0
  0
BLOCK
  8
0
  2
*D14
 70
     1
 10
0.0
 20
0.0
 30
0.0
  0
LINE
  5
371C
  8
0
  6
BYBLOCK
 62
     3
 10
-3.751276858523692
 20
-0.0870844062333518
 30
0.0
 11
-9.519945418084708
 21
-2.872627913281033
 31
0.0
  0
LINE
  5
371D
  8
0
  6
BYBLOCK
 62
     3
 10
-8.184791418576344
 20
-2.227915963575557
 30
0.0
 11
-8.184791418576344
 21
-2.227915963575557
 31
0.0
  0
SOLID
  5
371E
  8
0
  6
BYBLOCK
 62
     3
 10
-2.400510743409479
 20
0.5651662375066564
 30
0.0
 11
-3.859985299147048
 21
0.1380432796190622
 31
0.0
 12
-3.642568417900335
 22
-0.3122120920857657
 32
0.0
 13
-3.642568417900335
 23
-0.3122120920857657
 33
0.0
  0
TEXT
  5
371F
  8
0
  6
CONTINUOUS
 62
     3
 10
-9.338844520469621
 20
-2.685235607374742
 30
0.0
 40
2.0
  1
R1
 50
25.77471640079832
  7
돋움
  0
POINT
  5
3720
  8
DEFPOINTS
  6
BYBLOCK
 62
     3
 10
-1.500000000000004
 20
0.9999999999999949
 30
0.0
  0
POINT
  5
3721
  8
DEFPOINTS
  6
BYBLOCK
 62
     3
 10
-2.400510743409479
 20
0.5651662375066564
 30
0.0
  0
ENDBLK
  8
0
  0
BLOCK
  8
0
  2
*X15
 70
     1
 10
0.0
 20
0.0
 30
0.0
  0
TEXT
  5
3768
  8
0
  6
CONTINUOUS
 62
     3
 10
-1.854490450352849
 20
72.74638438680276
 30
0.0
 40
2.0
  1
\U+2205
  7
돋움
  0
TEXT
  5
3769
  8
0
  6
CONTINUOUS
 62
     3
 10
-0.0449666408290401
 20
72.74638438680276
 30
0.0
 40
2.0
  1
6
  7
돋움
  0
ENDBLK
  8
0
  0
BLOCK
  8
0
  2
*X16
 70
     1
 10
0.0
 20
0.0
 30
0.0
  0
TEXT
  5
376B
  8
0
  6
CONTINUOUS
 62
     3
 10
-1.843844221337487
 20
-5.094804539705279
 30
0.0
 40
2.0
  1
\U+2205
  7
돋움
  0
TEXT
  5
376C
  8
0
  6
CONTINUOUS
 62
     3
 10
-0.0343204118136775
 20
-5.094804539705279
 30
0.0
 40
2.0
  1
5
  7
돋움
  0
ENDBLK
  8
0
  0
ENDSEC
  0
SECTION
  2
ENTITIES
  0
LINE
  5
394
  8
0
 10
-2.5
 20
70.0
 30
0.0
 11
2.5
 21
70.0
 31
0.0
  0
LINE
  5
398
  8
0
 10
-3.0
 20
26.86602540378443
 30
0.0
 11
-3.0
 21
69.5
 31
0.0
  0
LINE
  5
399
  8
0
 10
3.0
 20
26.86602540378443
 30
0.0
 11
3.0
 21
69.5
 31
0.0
  0
LINE
  5
39A
  8
0
 10
2.500000000000002
 20
25.0
 30
0.0
 11
3.0
 21
26.86602540378443
 31
0.0
  0
LINE
  5
39B
  8
0
 10
-2.500000000000002
 20
25.0
 30
0.0
 11
-3.0
 21
26.86602540378443
 31
0.0
  0
LINE
  5
39C
  8
0
 10
-3.0
 20
69.5
 30
0.0
 11
3.0
 21
69.5
 31
0.0
  0
LINE
  5
39D
  8
0
 10
-3.0
 20
69.5
 30
0.0
 11
-2.5
 21
70.0
 31
0.0
  0
LINE
  5
39E
  8
0
 10
3.0
 20
69.5
 30
0.0
 11
2.5
 21
70.0
 31
0.0
  0
DIMENSION
  5
39F
  8
0
  2
*D1
 10
3.0
 20
72.6020365607158
 30
0.0
 11
-0.3306809265433256
 21
72.6020365607158
 31
0.0
 70
   160
  1
%%c<>
 13
-3.0
 23
69.5
 33
0.0
 14
3.0
 24
69.5
 34
0.0
  0
DIMENSION
  5
89F
  8
0
  2
*D2
 10
14.3196194236415
 20
0.0000000000000064
 30
0.0
 11
13.22554333668498
 21
35.0
 31
0.0
 70
    32
 13
2.5
 23
70.0
 33
0.0
 14
2.025886473839717
 24
0.0000000000000071
 34
0.0
 50
90.0
  0
LINE
  5
1836
  8
0
 10
-2.500000000000002
 20
0.999999999999993
 30
0.0
 11
-2.500000000000002
 21
25.0
 31
0.0
  0
LINE
  5
183B
  8
0
 10
2.500000000000002
 20
1.000000000000012
 30
0.0
 11
2.500000000000002
 21
25.0
 31
0.0
  0
LINE
  5
1932
  8
0
 10
-1.500000000000002
 20
-0.0000000000000031
 30
0.0
 11
1.500000000000002
 21
0.0000000000000083
 31
0.0
  0
LINE
  5
1943
  8
0
  6
BYBLOCK
 62
     3
 10
0.2999999999999989
 20
0.0
 30
0.0
 11
0.2999999999999989
 21
0.0
 31
0.0
  0
LINE
  5
1944
  8
0
  6
BYBLOCK
 62
     3
 10
0.2999999999999989
 20
0.0
 30
0.0
 11
0.2999999999999989
 21
0.0
 31
0.0
  0
DIMENSION
  5
22BC
  8
0
  2
*D3
 10
2.500000000000002
 20
-5.239152365792235
 30
0.0
 11
-0.2724156499089155
 21
-5.239152365792235
 31
0.0
 70
   160
  1
%%C<>
 13
-2.500000000000002
 23
0.199999999999993
 33
0.0
 14
2.500000000000002
 24
0.2000000000000122
 34
0.0
  0
DIMENSION
  5
2395
  8
0
  2
*D4
 10
11.63103372962518
 20
25.0
 30
0.0
 11
10.53695764266866
 21
12.5
 31
0.0
 70
    32
 13
2.275886473839717
 23
0.0000000000000071
 33
0.0
 14
2.500000000000002
 24
25.0
 34
0.0
 50
90.0
  0
DIMENSION
  5
30C6
  8
0
  2
*D6
 10
11.63103372962518
 20
25.0
 30
0.0
 11
10.53695764266866
 21
12.5
 31
0.0
 70
    32
 13
2.275886473839717
 23
0.0000000000000071
 33
0.0
 14
2.500000000000002
 24
25.0
 34
0.0
 50
90.0
  0
DIMENSION
  5
30F2
  8
0
  2
*D7
 10
11.63103372962518
 20
25.0
 30
0.0
 11
10.53695764266866
 21
12.5
 31
0.0
 70
    32
 13
2.275886473839717
 23
0.0000000000000071
 33
0.0
 14
2.500000000000002
 24
25.0
 34
0.0
 50
90.0
  0
DIMENSION
  5
326E
  8
0
  2
*D8
 10
11.63103372962518
 20
25.0
 30
0.0
 11
10.53695764266866
 21
12.5
 31
0.0
 70
    32
 13
2.275886473839717
 23
0.0000000000000071
 33
0.0
 14
2.500000000000002
 24
25.0
 34
0.0
 50
90.0
  0
DIMENSION
  5
327A
  8
0
  2
*D9
 10
11.63103372962518
 20
25.0
 30
0.0
 11
10.53695764266866
 21
12.5
 31
0.0
 70
    32
 13
2.275886473839717
 23
0.0000000000000071
 33
0.0
 14
2.500000000000002
 24
25.0
 34
0.0
 50
90.0
  0
DIMENSION
  5
3286
  8
0
  2
*D10
 10
11.63103372962518
 20
25.0
 30
0.0
 11
10.53695764266866
 21
12.5
 31
0.0
 70
    32
 13
2.275886473839717
 23
0.0000000000000071
 33
0.0
 14
2.500000000000002
 24
25.0
 34
0.0
 50
90.0
  0
DIMENSION
  5
3362
  8
0
  2
*D11
 10
11.63103372962518
 20
25.0
 30
0.0
 11
10.53695764266866
 21
12.5
 31
0.0
 70
    32
 13
2.275886473839717
 23
0.0000000000000071
 33
0.0
 14
2.500000000000002
 24
25.0
 34
0.0
 50
90.0
  0
DIMENSION
  5
34CE
  8
0
  2
*D12
 10
8.534892747108412
 20
0.0000000000000067
 30
0.0
 11
7.44081666015189
 21
3.750000000000004
 31
0.0
 70
    32
 13
2.500000000000002
 23
7.5
 33
0.0
 14
2.275886473839717
 24
0.0000000000000071
 34
0.0
 50
90.0
  0
ARC
  5
3702
  8
0
 10
-1.500000000000004
 20
0.9999999999999949
 30
0.0
 40
1.0
 50
180.0000000000001
 51
270.0000000000001
  0
ARC
  5
3703
  8
0
 10
1.5
 20
1.00000000000001
 30
0.0
 40
1.0
 50
270.0000000000001
 51
0.0000000000001018
  0
DIMENSION
  5
3708
  8
0
  2
*D14
 10
-1.500000000000004
 20
0.9999999999999949
 30
0.0
 11
-8.184791418576344
 21
-2.227915963575557
 31
0.0
 70
   164
 15
-2.400510743409479
 25
0.5651662375066564
 35
0.0
 40
0.0
  0
LINE
  5
3714
  8
0
  6
BYBLOCK
 62
     3
 10
-1.500000000000004
 20
0.9999999999999949
 30
0.0
 11
-1.500000000000004
 21
0.9999999999999949
 31
0.0
  0
LINE
  5
3715
  8
0
  6
BYBLOCK
 62
     3
 10
-1.500000000000004
 20
0.9999999999999949
 30
0.0
 11
-1.500000000000004
 21
0.9999999999999949
 31
0.0
  0
ENDSEC
  0
EOF
