  0
SECTION
  2
HEADER
  9
$ACADVER
  1
AC1006
  9
$DWGCODEPAGE
  3
ansi_949
  9
$INSBASE
 10
0.0
 20
0.0
 30
0.0
  9
$EXTMIN
 10
-14.58801910343669
 20
-5.739152365792235
  9
$EXTMAX
 10
17.64757963122572
 20
84.8007322128897
  9
$LIMMIN
 10
0.0
 20
0.0
  9
$LIMMAX
 10
12.0
 20
9.0
  9
$ORTHOMODE
 70
     1
  9
$REGENMODE
 70
     1
  9
$FILLMODE
 70
     1
  9
$QTEXTMODE
 70
     0
  9
$MIRRTEXT
 70
     0
  9
$DRAGMODE
 70
     2
  9
$LTSCALE
 40
1.0
  9
$OSMODE
 70
    37
  9
$ATTMODE
 70
     1
  9
$TEXTSIZE
 40
0.2
  9
$TRACEWID
 40
0.05
  9
$TEXTSTYLE
  7
STANDARD
  9
$CLAYER
  8
0
  9
$CELTYPE
  6
BYLAYER
  9
$CECOLOR
 62
   256
  9
$DIMSCALE
 40
1.0
  9
$DIMASZ
 40
1.5
  9
$DIMEXO
 40
0.5
  9
$DIMDLI
 40
2.0
  9
$DIMRND
 40
0.0
  9
$DIMDLE
 40
0.0
  9
$DIMEXE
 40
0.5
  9
$DIMTP
 40
0.0
  9
$DIMTM
 40
0.0
  9
$DIMTXT
 40
2.0
  9
$DIMCEN
 40
0.0
  9
$DIMTSZ
 40
0.0
  9
$DIMTOL
 70
     0
  9
$DIMLIM
 70
     0
  9
$DIMTIH
 70
     0
  9
$DIMTOH
 70
     0
  9
$DIMSE1
 70
     0
  9
$DIMSE2
 70
     0
  9
$DIMTAD
 70
     1
  9
$DIMZIN
 70
     0
  9
$DIMBLK
  1

  9
$DIMASO
 70
     1
  9
$DIMSHO
 70
     1
  9
$DIMPOST
  1

  9
$DIMAPOST
  1

  9
$DIMALT
 70
     0
  9
$DIMALTD
 70
     2
  9
$DIMALTF
 40
25.4
  9
$DIMLFAC
 40
1.0
  9
$DIMTOFL
 70
     0
  9
$DIMTVP
 40
0.0
  9
$DIMTIX
 70
     0
  9
$DIMSOXD
 70
     0
  9
$DIMSAH
 70
     0
  9
$DIMBLK1
  1

  9
$DIMBLK2
  1

  9
$LUNITS
 70
     2
  9
$LUPREC
 70
     4
  9
$SKETCHINC
 40
0.1
  9
$FILLETRAD
 40
0.5
  9
$AUNITS
 70
     0
  9
$AUPREC
 70
     0
  9
$MENU
  1
.
  9
$ELEVATION
 40
0.0
  9
$THICKNESS
 40
0.0
  9
$LIMCHECK
 70
     0
  9
$CHAMFERA
 40
0.0
  9
$CHAMFERB
 40
0.0
  9
$SKPOLY
 70
     0
  9
$TDCREATE
 40
2453353.842125822
  9
$TDUPDATE
 40
2459506.205142141
  9
$TDINDWG
 40
0.0974860995
  9
$TDUSRTIMER
 40
0.0974513542
  9
$USRTIMER
 70
     1
  9
$ANGBASE
 50
0.0
  9
$ANGDIR
 70
     0
  9
$PDMODE
 70
     0
  9
$PDSIZE
 40
0.0
  9
$PLINEWID
 40
0.0
  9
$COORDS
 70
     1
  9
$SPLFRAME
 70
     0
  9
$SPLINETYPE
 70
     6
  9
$SPLINESEGS
 70
     8
  9
$ATTDIA
 70
     0
  9
$ATTREQ
 70
     1
  9
$HANDLING
 70
     1
  9
$HANDSEED
  5
3A8D
  9
$SURFTAB1
 70
     6
  9
$SURFTAB2
 70
     6
  9
$SURFTYPE
 70
     6
  9
$SURFU
 70
     6
  9
$SURFV
 70
     6
  9
$UCSNAME
  2

  9
$UCSORG
 10
0.0
 20
0.0
 30
0.0
  9
$UCSXDIR
 10
1.0
 20
0.0
 30
0.0
  9
$UCSYDIR
 10
0.0
 20
1.0
 30
0.0
  9
$USERI1
 70
     0
  9
$USERI2
 70
     0
  9
$USERI3
 70
     0
  9
$USERI4
 70
     0
  9
$USERI5
 70
     0
  9
$USERR1
 40
0.0
  9
$USERR2
 40
0.0
  9
$USERR3
 40
0.0
  9
$USERR4
 40
0.0
  9
$USERR5
 40
0.0
  9
$WORLDVIEW
 70
     1
  0
ENDSEC
  0
SECTION
  2
TABLES
  0
TABLE
  2
VPORT
 70
     1
  0
VPORT
  2
*ACTIVE
 70
     0
 10
0.0
 20
0.0
 11
1.0
 21
1.0
 12
1.529780263894512
 22
39.53078992354873
 13
0.0
 23
0.0
 14
0.5
 24
0.5
 15
0.5
 25
0.5
 16
0.0
 26
0.0
 36
1.0
 17
0.0
 27
0.0
 37
0.0
 40
92.35068227025558
 41
1.701534170153416
 42
50.0
 43
0.0
 44
0.0
 50
0.0
 51
0.0
 71
    16
 72
  1000
 73
     1
 74
     3
 75
     0
 76
     0
 77
     0
 78
     0
  0
ENDTAB
  0
TABLE
  2
LTYPE
 70
     1
  0
LTYPE
  2
CONTINUOUS
 70
     0
  3
Solid line
 72
    65
 73
     0
 40
0.0
  0
ENDTAB
  0
TABLE
  2
LAYER
 70
     2
  0
LAYER
  2
0
 70
     0
 62
     7
  6
CONTINUOUS
  0
LAYER
  2
DEFPOINTS
 70
     0
 62
     7
  6
CONTINUOUS
  0
ENDTAB
  0
TABLE
  2
STYLE
 70
     2
  0
STYLE
  2
STANDARD
 70
     0
 40
0.0
 41
1.0
 50
0.0
 71
     0
 42
0.2
  3
IC-txt.shx
  4

  0
STYLE
  2
돋움
 70
     0
 40
0.0
 41
1.0
 50
0.0
 71
     0
 42
0.2
  3
Dotum.ttf
  4

  0
ENDTAB
  0
TABLE
  2
VIEW
 70
     0
  0
ENDTAB
  0
TABLE
  2
UCS
 70
     0
  0
ENDTAB
  0
ENDSEC
  0
SECTION
  2
BLOCKS
  0
BLOCK
  8
0
  2
*D1
 70
     1
 10
0.0
 20
0.0
 30
0.0
  0
POINT
  5
39F8
  8
DEFPOINTS
  6
BYBLOCK
 62
     3
 10
-4.0
 20
79.5
 30
0.0
  0
POINT
  5
39F9
  8
DEFPOINTS
  6
BYBLOCK
 62
     3
 10
4.0
 20
79.5
 30
0.0
  0
LINE
  5
39FA
  8
0
  6
BYBLOCK
 62
     3
 10
-4.0
 20
80.0
 30
0.0
 11
-4.0
 21
83.10203656071579
 31
0.0
  0
LINE
  5
39FB
  8
0
  6
BYBLOCK
 62
     3
 10
4.0
 20
80.0
 30
0.0
 11
4.0
 21
83.10203656071579
 31
0.0
  0
LINE
  5
39FC
  8
0
  6
BYBLOCK
 62
     3
 10
-4.0
 20
82.60203656071579
 30
0.0
 11
4.0
 21
82.60203656071579
 31
0.0
  0
SOLID
  5
39FD
  8
0
  6
BYBLOCK
 62
     3
 10
-4.0
 20
82.60203656071579
 30
0.0
 11
-2.5
 21
82.35203656071573
 31
0.0
 12
-2.5
 22
82.85203656071585
 32
0.0
 13
-2.5
 23
82.85203656071585
 33
0.0
  0
SOLID
  5
39FE
  8
0
  6
BYBLOCK
 62
     3
 10
4.0
 20
82.60203656071579
 30
0.0
 11
2.5
 21
82.35203656071573
 31
0.0
 12
2.5
 22
82.85203656071585
 32
0.0
 13
2.5
 23
82.85203656071585
 33
0.0
  0
INSERT
  5
39FF
  8
0
  6
BYBLOCK
 62
     3
  2
*X8
 10
0.0
 20
0.0
 30
0.0
  0
ENDBLK
  8
0
  0
BLOCK
  8
0
  2
*D2
 70
     1
 10
0.0
 20
0.0
 30
0.0
  0
POINT
  5
3A18
  8
DEFPOINTS
  6
BYBLOCK
 62
     3
 10
3.5
 20
80.0
 30
0.0
  0
POINT
  5
3A19
  8
DEFPOINTS
  6
BYBLOCK
 62
     3
 10
3.7
 20
0.0000000000000142
 30
0.0
  0
LINE
  5
3A1A
  8
0
  6
BYBLOCK
 62
     3
 10
4.0
 20
80.0
 30
0.0
 11
17.64757963122572
 21
80.0
 31
0.0
  0
LINE
  5
3A1B
  8
0
  6
BYBLOCK
 62
     3
 10
4.2
 20
0.0000000000000142
 30
0.0
 11
17.64757963122572
 21
0.0000000000000142
 31
0.0
  0
LINE
  5
3A1C
  8
0
  6
BYBLOCK
 62
     3
 10
17.14757963122572
 20
80.0
 30
0.0
 11
17.14757963122572
 21
0.0000000000000142
 31
0.0
  0
SOLID
  5
3A1D
  8
0
  6
BYBLOCK
 62
     3
 10
17.14757963122572
 20
80.0
 30
0.0
 11
16.89757963122567
 21
78.5
 31
0.0
 12
17.39757963122577
 22
78.5
 32
0.0
 13
17.39757963122577
 23
78.5
 33
0.0
  0
SOLID
  5
3A1E
  8
0
  6
BYBLOCK
 62
     3
 10
17.14757963122572
 20
0.0000000000000142
 30
0.0
 11
16.89757963122567
 21
1.500000000000014
 31
0.0
 12
17.39757963122577
 22
1.500000000000014
 32
0.0
 13
17.39757963122577
 23
1.500000000000014
 33
0.0
  0
TEXT
  5
3A1F
  8
0
  6
CONTINUOUS
 62
     3
 10
17.0535035442692
 20
38.38095238095239
 30
0.0
 40
2.0
  1
80
 50
90.0
  7
돋움
  0
ENDBLK
  8
0
  0
BLOCK
  8
0
  2
*D3
 70
     1
 10
0.0
 20
0.0
 30
0.0
  0
POINT
  5
38A9
  8
DEFPOINTS
  6
BYBLOCK
 62
     3
 10
-4.0
 20
0.3000000000000143
 30
0.0
  0
POINT
  5
38AA
  8
DEFPOINTS
  6
BYBLOCK
 62
     3
 10
4.0
 20
0.3000000000000143
 30
0.0
  0
LINE
  5
38AB
  8
0
  6
BYBLOCK
 62
     3
 10
-4.0
 20
-0.1999999999999857
 30
0.0
 11
-4.0
 21
-5.739152365792235
 31
0.0
  0
LINE
  5
38AC
  8
0
  6
BYBLOCK
 62
     3
 10
4.0
 20
-0.1999999999999857
 30
0.0
 11
4.0
 21
-5.739152365792235
 31
0.0
  0
LINE
  5
38AD
  8
0
  6
BYBLOCK
 62
     3
 10
-4.0
 20
-5.239152365792235
 30
0.0
 11
4.0
 21
-5.239152365792235
 31
0.0
  0
SOLID
  5
38AE
  8
0
  6
BYBLOCK
 62
     3
 10
-4.0
 20
-5.239152365792235
 30
0.0
 11
-2.5
 21
-5.489152365792284
 31
0.0
 12
-2.5
 22
-4.989152365792185
 32
0.0
 13
-2.5
 23
-4.989152365792185
 33
0.0
  0
SOLID
  5
38AF
  8
0
  6
BYBLOCK
 62
     3
 10
4.0
 20
-5.239152365792235
 30
0.0
 11
2.5
 21
-5.489152365792284
 31
0.0
 12
2.5
 22
-4.989152365792185
 32
0.0
 13
2.5
 23
-4.989152365792185
 33
0.0
  0
INSERT
  5
38B0
  8
0
  6
BYBLOCK
 62
     3
  2
*X9
 10
0.0
 20
0.0
 30
0.0
  0
ENDBLK
  8
0
  0
BLOCK
  8
0
  2
*D4
 70
     1
 10
0.0
 20
0.0
 30
0.0
  0
POINT
  5
39E8
  8
DEFPOINTS
  6
BYBLOCK
 62
     3
 10
3.775886473839717
 20
0.0000000000000071
 30
0.0
  0
POINT
  5
39E9
  8
DEFPOINTS
  6
BYBLOCK
 62
     3
 10
3.5
 20
40.00000000000001
 30
0.0
  0
LINE
  5
39EA
  8
0
  6
BYBLOCK
 62
     3
 10
4.275886473839718
 20
0.0000000000000071
 30
0.0
 11
13.63103372962518
 21
0.0000000000000071
 31
0.0
  0
LINE
  5
39EB
  8
0
  6
BYBLOCK
 62
     3
 10
4.0
 20
40.00000000000001
 30
0.0
 11
13.63103372962518
 21
40.00000000000001
 31
0.0
  0
LINE
  5
39EC
  8
0
  6
BYBLOCK
 62
     3
 10
13.13103372962518
 20
0.0000000000000071
 30
0.0
 11
13.13103372962518
 21
40.00000000000001
 31
0.0
  0
SOLID
  5
39ED
  8
0
  6
BYBLOCK
 62
     3
 10
13.13103372962518
 20
0.0000000000000071
 30
0.0
 11
13.38103372962523
 21
1.500000000000007
 31
0.0
 12
12.88103372962513
 22
1.500000000000007
 32
0.0
 13
12.88103372962513
 23
1.500000000000007
 33
0.0
  0
SOLID
  5
39EE
  8
0
  6
BYBLOCK
 62
     3
 10
13.13103372962518
 20
40.00000000000001
 30
0.0
 11
13.38103372962523
 21
38.50000000000001
 31
0.0
 12
12.88103372962513
 22
38.50000000000001
 32
0.0
 13
12.88103372962513
 23
38.50000000000001
 33
0.0
  0
TEXT
  5
39EF
  8
0
  6
CONTINUOUS
 62
     3
 10
13.03695764266866
 20
18.38095238095239
 30
0.0
 40
2.0
  1
40
 50
90.0
  7
돋움
  0
ENDBLK
  8
0
  0
BLOCK
  8
0
  2
*D6
 70
     1
 10
0.0
 20
0.0
 30
0.0
  0
POINT
  5
39D8
  8
DEFPOINTS
  6
BYBLOCK
 62
     3
 10
4.0
 20
12.00000000000001
 30
0.0
  0
POINT
  5
39D9
  8
DEFPOINTS
  6
BYBLOCK
 62
     3
 10
3.7
 20
0.0000000000000142
 30
0.0
  0
LINE
  5
39DA
  8
0
  6
BYBLOCK
 62
     3
 10
4.5
 20
12.00000000000001
 30
0.0
 11
9.631272838741161
 21
12.00000000000001
 31
0.0
  0
LINE
  5
39DB
  8
0
  6
BYBLOCK
 62
     3
 10
4.2
 20
0.0000000000000142
 30
0.0
 11
9.631272838741161
 21
0.0000000000000142
 31
0.0
  0
LINE
  5
39DC
  8
0
  6
BYBLOCK
 62
     3
 10
9.131272838741161
 20
12.00000000000001
 30
0.0
 11
9.131272838741161
 21
0.0000000000000142
 31
0.0
  0
SOLID
  5
39DD
  8
0
  6
BYBLOCK
 62
     3
 10
9.131272838741161
 20
12.00000000000001
 30
0.0
 11
8.881272838741111
 21
10.50000000000001
 31
0.0
 12
9.38127283874121
 22
10.50000000000001
 32
0.0
 13
9.38127283874121
 23
10.50000000000001
 33
0.0
  0
SOLID
  5
39DE
  8
0
  6
BYBLOCK
 62
     3
 10
9.131272838741161
 20
0.0000000000000142
 30
0.0
 11
8.881272838741111
 21
1.500000000000014
 31
0.0
 12
9.38127283874121
 22
1.500000000000014
 32
0.0
 13
9.38127283874121
 23
1.500000000000014
 33
0.0
  0
TEXT
  5
39DF
  8
0
  6
CONTINUOUS
 62
     3
 10
9.038555447436813
 20
4.571428571428585
 30
0.0
 40
2.0
  1
12
 50
90.0
  7
돋움
  0
ENDBLK
  8
0
  0
BLOCK
  8
0
  2
*D7
 70
     1
 10
0.0
 20
0.0
 30
0.0
  0
LINE
  5
3A46
  8
0
  6
BYBLOCK
 62
     3
 10
-5.429323663270842
 20
-0.0269821651091796
 30
0.0
 11
-13.46792759962322
 21
-2.22267435894901
 31
0.0
  0
LINE
  5
3A47
  8
0
  6
BYBLOCK
 62
     3
 10
-10.50022935823437
 20
-1.412066955737845
 30
0.0
 11
-10.50022935823437
 21
-1.412066955737845
 31
0.0
  0
SOLID
  5
3A48
  8
0
  6
BYBLOCK
 62
     3
 10
-3.98233091581771
 20
0.3682544587227159
 30
0.0
 11
-5.495196433909505
 21
0.214183292799724
 31
0.0
 12
-5.36345089263218
 22
-0.2681476230180832
 32
0.0
 13
-5.36345089263218
 23
-0.2681476230180832
 33
0.0
  0
TEXT
  5
3A49
  8
0
  6
CONTINUOUS
 62
     3
 10
-13.5098016059644
 20
-2.14081502736917
 30
0.0
 40
2.0
  1
R0.5
 50
15.27731194081543
  7
돋움
  0
POINT
  5
3A4A
  8
DEFPOINTS
  6
BYBLOCK
 62
     3
 10
-3.5
 20
0.5000000000000142
 30
0.0
  0
POINT
  5
3A4B
  8
DEFPOINTS
  6
BYBLOCK
 62
     3
 10
-3.98233091581771
 20
0.3682544587227159
 30
0.0
  0
ENDBLK
  8
0
  0
BLOCK
  8
0
  2
*X8
 70
     1
 10
0.0
 20
0.0
 30
0.0
  0
TEXT
  5
3A84
  8
0
  6
CONTINUOUS
 62
     3
 10
-1.571428571428571
 20
82.74638438680275
 30
0.0
 40
2.0
  1
\U+2205
  7
돋움
  0
TEXT
  5
3A85
  8
0
  6
CONTINUOUS
 62
     3
 10
0.2380952380952381
 20
82.74638438680275
 30
0.0
 40
2.0
  1
8
  7
돋움
  0
ENDBLK
  8
0
  0
BLOCK
  8
0
  2
*X9
 70
     1
 10
0.0
 20
0.0
 30
0.0
  0
TEXT
  5
3A87
  8
0
  6
CONTINUOUS
 62
     3
 10
-1.571428571428571
 20
-5.094804539705279
 30
0.0
 40
2.0
  1
\U+2205
  7
돋움
  0
TEXT
  5
3A88
  8
0
  6
CONTINUOUS
 62
     3
 10
0.2380952380952381
 20
-5.094804539705279
 30
0.0
 40
2.0
  1
8
  7
돋움
  0
ENDBLK
  8
0
  0
ENDSEC
  0
SECTION
  2
ENTITIES
  0
LINE
  5
394
  8
0
 10
-3.5
 20
80.0
 30
0.0
 11
3.5
 21
80.0
 31
0.0
  0
LINE
  5
398
  8
0
 10
-4.0
 20
0.5000000000000142
 30
0.0
 11
-4.0
 21
79.5
 31
0.0
  0
LINE
  5
399
  8
0
 10
4.0
 20
0.5000000000000142
 30
0.0
 11
4.0
 21
79.5
 31
0.0
  0
LINE
  5
39C
  8
0
 10
-4.0
 20
79.5
 30
0.0
 11
4.0
 21
79.5
 31
0.0
  0
LINE
  5
39D
  8
0
 10
-4.0
 20
79.5
 30
0.0
 11
-3.5
 21
80.0
 31
0.0
  0
LINE
  5
39E
  8
0
 10
4.0
 20
79.5
 30
0.0
 11
3.5
 21
80.0
 31
0.0
  0
DIMENSION
  5
39F
  8
0
  2
*D1
 10
4.0
 20
82.60203656071579
 30
0.0
 11
0.0
 21
82.60203656071579
 31
0.0
 70
   160
  1
%%c<>
 13
-4.0
 23
79.5
 33
0.0
 14
4.0
 24
79.5
 34
0.0
  0
DIMENSION
  5
89F
  8
0
  2
*D2
 10
17.14757963122572
 20
0.0000000000000133
 30
0.0
 11
16.0535035442692
 21
40.00000000000001
 31
0.0
 70
    32
 13
3.5
 23
80.0
 33
0.0
 14
3.7
 24
0.0000000000000142
 34
0.0
 50
90.0
  0
LINE
  5
1932
  8
0
 10
-2.5
 20
-0.0000000000000041
 30
0.0
 11
2.5
 21
0.0000000000000074
 31
0.0
  0
DIMENSION
  5
22BC
  8
0
  2
*D3
 10
4.0
 20
-5.239152365792235
 30
0.0
 11
0.0
 21
-5.239152365792235
 31
0.0
 70
   160
  1
%%C<>
 13
-4.0
 23
0.3000000000000143
 33
0.0
 14
4.0
 24
0.3000000000000143
 34
0.0
  0
DIMENSION
  5
2395
  8
0
  2
*D4
 10
13.13103372962518
 20
40.00000000000001
 30
0.0
 11
12.03695764266866
 21
20.00000000000001
 31
0.0
 70
    32
 13
3.775886473839717
 23
0.0000000000000071
 33
0.0
 14
3.5
 24
40.00000000000001
 34
0.0
 50
90.0
  0
LINE
  5
35DB
  8
0
 10
3.5
 20
0.0000000000000142
 30
0.0
 11
-3.5
 21
0.0000000000000142
 31
0.0
  0
DIMENSION
  5
39AC
  8
0
  2
*D6
 10
9.131272838741161
 20
0.0000000000000139
 30
0.0
 11
8.038555447436813
 21
6.000000000000014
 31
0.0
 70
    32
 13
4.0
 23
12.00000000000001
 33
0.0
 14
3.7
 24
0.0000000000000142
 34
0.0
 50
90.0
  0
ARC
  5
3A20
  8
0
 10
-3.5
 20
0.5000000000000142
 30
0.0
 40
0.5
 50
180.0
 51
270.0
  0
ARC
  5
3A21
  8
0
 10
3.5
 20
0.5000000000000142
 30
0.0
 40
0.5
 50
270.0
 51
0.0
  0
DIMENSION
  5
3A32
  8
0
  2
*D7
 10
-3.5
 20
0.5000000000000142
 30
0.0
 11
-10.50022935823437
 21
-1.412066955737845
 31
0.0
 70
   164
 15
-3.98233091581771
 25
0.3682544587227159
 35
0.0
 40
0.0
  0
LINE
  5
3A3E
  8
0
  6
BYBLOCK
 62
     3
 10
-3.5
 20
0.5000000000000142
 30
0.0
 11
-3.5
 21
0.5000000000000142
 31
0.0
  0
LINE
  5
3A3F
  8
0
  6
BYBLOCK
 62
     3
 10
-3.5
 20
0.5000000000000142
 30
0.0
 11
-3.5
 21
0.5000000000000142
 31
0.0
  0
ENDSEC
  0
EOF
