  0
SECTION
  2
HEADER
  9
$ACADVER
  1
AC1006
  9
$DWGCODEPAGE
  3
ansi_949
  9
$INSBASE
 10
0.0
 20
0.0
 30
0.0
  9
$EXTMIN
 10
-9.358764054757028
 20
-5.487251056840142
  9
$EXTMAX
 10
16.81446712711066
 20
54.80073221288972
  9
$LIMMIN
 10
0.0
 20
0.0
  9
$LIMMAX
 10
12.0
 20
9.0
  9
$ORTHOMODE
 70
     1
  9
$REGENMODE
 70
     1
  9
$FILLMODE
 70
     1
  9
$QTEXTMODE
 70
     0
  9
$MIRRTEXT
 70
     0
  9
$DRAGMODE
 70
     2
  9
$LTSCALE
 40
1.0
  9
$OSMODE
 70
    37
  9
$ATTMODE
 70
     1
  9
$TEXTSIZE
 40
0.2
  9
$TRACEWID
 40
0.05
  9
$TEXTSTYLE
  7
STANDARD
  9
$CLAYER
  8
0
  9
$CELTYPE
  6
BYLAYER
  9
$CECOLOR
 62
   256
  9
$DIMSCALE
 40
1.0
  9
$DIMASZ
 40
1.5
  9
$DIMEXO
 40
0.5
  9
$DIMDLI
 40
2.0
  9
$DIMRND
 40
0.0
  9
$DIMDLE
 40
0.0
  9
$DIMEXE
 40
0.5
  9
$DIMTP
 40
0.0
  9
$DIMTM
 40
0.0
  9
$DIMTXT
 40
2.0
  9
$DIMCEN
 40
0.0
  9
$DIMTSZ
 40
0.0
  9
$DIMTOL
 70
     0
  9
$DIMLIM
 70
     0
  9
$DIMTIH
 70
     0
  9
$DIMTOH
 70
     0
  9
$DIMSE1
 70
     0
  9
$DIMSE2
 70
     0
  9
$DIMTAD
 70
     1
  9
$DIMZIN
 70
     0
  9
$DIMBLK
  1

  9
$DIMASO
 70
     1
  9
$DIMSHO
 70
     1
  9
$DIMPOST
  1

  9
$DIMAPOST
  1

  9
$DIMALT
 70
     0
  9
$DIMALTD
 70
     2
  9
$DIMALTF
 40
25.4
  9
$DIMLFAC
 40
1.0
  9
$DIMTOFL
 70
     0
  9
$DIMTVP
 40
0.0
  9
$DIMTIX
 70
     0
  9
$DIMSOXD
 70
     0
  9
$DIMSAH
 70
     0
  9
$DIMBLK1
  1

  9
$DIMBLK2
  1

  9
$LUNITS
 70
     2
  9
$LUPREC
 70
     4
  9
$SKETCHINC
 40
0.1
  9
$FILLETRAD
 40
0.1
  9
$AUNITS
 70
     0
  9
$AUPREC
 70
     0
  9
$MENU
  1
.
  9
$ELEVATION
 40
0.0
  9
$THICKNESS
 40
0.0
  9
$LIMCHECK
 70
     0
  9
$CHAMFERA
 40
0.0
  9
$CHAMFERB
 40
0.0
  9
$SKPOLY
 70
     0
  9
$TDCREATE
 40
2453353.842125822
  9
$TDUPDATE
 40
2459503.476902963
  9
$TDINDWG
 40
0.0709930787
  9
$TDUSRTIMER
 40
0.0709583796
  9
$USRTIMER
 70
     1
  9
$ANGBASE
 50
0.0
  9
$ANGDIR
 70
     0
  9
$PDMODE
 70
     0
  9
$PDSIZE
 40
0.0
  9
$PLINEWID
 40
0.0
  9
$COORDS
 70
     1
  9
$SPLFRAME
 70
     0
  9
$SPLINETYPE
 70
     6
  9
$SPLINESEGS
 70
     8
  9
$ATTDIA
 70
     0
  9
$ATTREQ
 70
     1
  9
$HANDLING
 70
     1
  9
$HANDSEED
  5
1A6F
  9
$SURFTAB1
 70
     6
  9
$SURFTAB2
 70
     6
  9
$SURFTYPE
 70
     6
  9
$SURFU
 70
     6
  9
$SURFV
 70
     6
  9
$UCSNAME
  2

  9
$UCSORG
 10
0.0
 20
0.0
 30
0.0
  9
$UCSXDIR
 10
1.0
 20
0.0
 30
0.0
  9
$UCSYDIR
 10
0.0
 20
1.0
 30
0.0
  9
$USERI1
 70
     0
  9
$USERI2
 70
     0
  9
$USERI3
 70
     0
  9
$USERI4
 70
     0
  9
$USERI5
 70
     0
  9
$USERR1
 40
0.0
  9
$USERR2
 40
0.0
  9
$USERR3
 40
0.0
  9
$USERR4
 40
0.0
  9
$USERR5
 40
0.0
  9
$WORLDVIEW
 70
     1
  0
ENDSEC
  0
SECTION
  2
TABLES
  0
TABLE
  2
VPORT
 70
     1
  0
VPORT
  2
*ACTIVE
 70
     0
 10
0.0
 20
0.0
 11
1.0
 21
1.0
 12
3.727851536176814
 22
24.65674057802479
 13
0.0
 23
0.0
 14
0.5
 24
0.5
 15
0.5
 25
0.5
 16
0.0
 26
0.0
 36
1.0
 17
0.0
 27
0.0
 37
0.0
 40
61.49374293512446
 41
1.701534170153416
 42
50.0
 43
0.0
 44
0.0
 50
0.0
 51
0.0
 71
    16
 72
  1000
 73
     1
 74
     3
 75
     0
 76
     0
 77
     0
 78
     0
  0
ENDTAB
  0
TABLE
  2
LTYPE
 70
     1
  0
LTYPE
  2
CONTINUOUS
 70
     0
  3
Solid line
 72
    65
 73
     0
 40
0.0
  0
ENDTAB
  0
TABLE
  2
LAYER
 70
     2
  0
LAYER
  2
0
 70
     0
 62
     7
  6
CONTINUOUS
  0
LAYER
  2
DEFPOINTS
 70
     0
 62
     7
  6
CONTINUOUS
  0
ENDTAB
  0
TABLE
  2
STYLE
 70
     2
  0
STYLE
  2
STANDARD
 70
     0
 40
0.0
 41
1.0
 50
0.0
 71
     0
 42
0.2
  3
IC-txt.shx
  4

  0
STYLE
  2
돋움
 70
     0
 40
0.0
 41
1.0
 50
0.0
 71
     0
 42
0.2
  3
Dotum.ttf
  4

  0
ENDTAB
  0
TABLE
  2
VIEW
 70
     0
  0
ENDTAB
  0
TABLE
  2
UCS
 70
     0
  0
ENDTAB
  0
ENDSEC
  0
SECTION
  2
BLOCKS
  0
BLOCK
  8
0
  2
*D1
 70
     1
 10
0.0
 20
0.0
 30
0.0
  0
POINT
  5
190D
  8
DEFPOINTS
  6
BYBLOCK
 62
     3
 10
-2.0
 20
49.5
 30
0.0
  0
POINT
  5
190E
  8
DEFPOINTS
  6
BYBLOCK
 62
     3
 10
2.0
 20
49.5
 30
0.0
  0
LINE
  5
190F
  8
0
  6
BYBLOCK
 62
     3
 10
-2.0
 20
50.0
 30
0.0
 11
-2.0
 21
53.1020365607158
 31
0.0
  0
LINE
  5
1910
  8
0
  6
BYBLOCK
 62
     3
 10
2.0
 20
50.0
 30
0.0
 11
2.0
 21
53.1020365607158
 31
0.0
  0
LINE
  5
1911
  8
0
  6
BYBLOCK
 62
     3
 10
-2.0
 20
52.6020365607158
 30
0.0
 11
2.0
 21
52.6020365607158
 31
0.0
  0
SOLID
  5
1912
  8
0
  6
BYBLOCK
 62
     3
 10
-2.0
 20
52.6020365607158
 30
0.0
 11
-0.5
 21
52.35203656071575
 31
0.0
 12
-0.5
 22
52.85203656071585
 32
0.0
 13
-0.5
 23
52.85203656071585
 33
0.0
  0
SOLID
  5
1913
  8
0
  6
BYBLOCK
 62
     3
 10
2.0
 20
52.6020365607158
 30
0.0
 11
0.5
 21
52.35203656071575
 31
0.0
 12
0.5
 22
52.85203656071585
 32
0.0
 13
0.5
 23
52.85203656071585
 33
0.0
  0
INSERT
  5
1914
  8
0
  6
BYBLOCK
 62
     3
  2
*X6
 10
0.0
 20
0.0
 30
0.0
  0
ENDBLK
  8
0
  0
BLOCK
  8
0
  2
*D2
 70
     1
 10
0.0
 20
0.0
 30
0.0
  0
POINT
  5
19FC
  8
DEFPOINTS
  6
BYBLOCK
 62
     3
 10
0.5
 20
0.000000000000007
 30
0.0
  0
POINT
  5
19FD
  8
DEFPOINTS
  6
BYBLOCK
 62
     3
 10
0.5000000000000001
 20
2.5
 30
0.0
  0
LINE
  5
19FE
  8
0
  6
BYBLOCK
 62
     3
 10
1.0
 20
0.000000000000007
 30
0.0
 11
13.26738532090152
 21
0.000000000000007
 31
0.0
  0
LINE
  5
19FF
  8
0
  6
BYBLOCK
 62
     3
 10
1.0
 20
2.5
 30
0.0
 11
13.26738532090152
 21
2.5
 31
0.0
  0
LINE
  5
1A00
  8
0
  6
BYBLOCK
 62
     3
 10
12.76738532090152
 20
-1.499999999999993
 30
0.0
 11
12.76738532090152
 21
-2.999999999999993
 31
0.0
  0
SOLID
  5
1A01
  8
0
  6
BYBLOCK
 62
     3
 10
12.76738532090152
 20
0.000000000000007
 30
0.0
 11
13.01738532090157
 21
-1.499999999999993
 31
0.0
 12
12.51738532090147
 22
-1.499999999999993
 32
0.0
 13
12.51738532090147
 23
-1.499999999999993
 33
0.0
  0
LINE
  5
1A02
  8
0
  6
BYBLOCK
 62
     3
 10
12.76738532090152
 20
4.0
 30
0.0
 11
12.76738532090152
 21
10.58339832598824
 31
0.0
  0
SOLID
  5
1A03
  8
0
  6
BYBLOCK
 62
     3
 10
12.76738532090152
 20
2.5
 30
0.0
 11
13.01738532090157
 21
4.0
 31
0.0
 12
12.51738532090147
 22
4.0
 32
0.0
 13
12.51738532090147
 23
4.0
 33
0.0
  0
TEXT
  5
1A04
  8
0
  6
CONTINUOUS
 62
     3
 10
12.673309233945
 20
6.34109501335884
 30
0.0
 40
2.0
  1
2.5
 50
90.0
  7
돋움
  0
ENDBLK
  8
0
  0
BLOCK
  8
0
  2
*D3
 70
     1
 10
0.0
 20
0.0
 30
0.0
  0
POINT
  5
1961
  8
DEFPOINTS
  6
BYBLOCK
 62
     3
 10
1.5
 20
50.0
 30
0.0
  0
POINT
  5
1962
  8
DEFPOINTS
  6
BYBLOCK
 62
     3
 10
0.5
 20
0.000000000000007
 30
0.0
  0
LINE
  5
1963
  8
0
  6
BYBLOCK
 62
     3
 10
2.0
 20
50.0
 30
0.0
 11
16.81446712711066
 21
50.0
 31
0.0
  0
LINE
  5
1964
  8
0
  6
BYBLOCK
 62
     3
 10
1.0
 20
0.0000000000000071
 30
0.0
 11
16.81446712711066
 21
0.0000000000000071
 31
0.0
  0
LINE
  5
1965
  8
0
  6
BYBLOCK
 62
     3
 10
16.31446712711066
 20
50.0
 30
0.0
 11
16.31446712711066
 21
0.0000000000000071
 31
0.0
  0
SOLID
  5
1966
  8
0
  6
BYBLOCK
 62
     3
 10
16.31446712711066
 20
50.0
 30
0.0
 11
16.06446712711061
 21
48.5
 31
0.0
 12
16.56446712711071
 22
48.5
 32
0.0
 13
16.56446712711071
 23
48.5
 33
0.0
  0
SOLID
  5
1967
  8
0
  6
BYBLOCK
 62
     3
 10
16.31446712711066
 20
0.0000000000000071
 30
0.0
 11
16.06446712711061
 21
1.500000000000007
 31
0.0
 12
16.56446712711071
 22
1.500000000000007
 32
0.0
 13
16.56446712711071
 23
1.500000000000007
 33
0.0
  0
TEXT
  5
1968
  8
0
  6
CONTINUOUS
 62
     3
 10
16.22039104015414
 20
23.38095238095239
 30
0.0
 40
2.0
  1
50
 50
90.0
  7
돋움
  0
ENDBLK
  8
0
  0
BLOCK
  8
0
  2
*D4
 70
     1
 10
0.0
 20
0.0
 30
0.0
  0
POINT
  5
19CB
  8
DEFPOINTS
  6
BYBLOCK
 62
     3
 10
-0.5
 20
0.0000000000000001
 30
0.0
  0
POINT
  5
19CC
  8
DEFPOINTS
  6
BYBLOCK
 62
     3
 10
0.5
 20
0.000000000000007
 30
0.0
  0
LINE
  5
19CD
  8
0
  6
BYBLOCK
 62
     3
 10
-0.5
 20
-0.4999999999999999
 30
0.0
 11
-0.5
 21
-5.487251056840142
 31
0.0
  0
LINE
  5
19CE
  8
0
  6
BYBLOCK
 62
     3
 10
0.5
 20
-0.499999999999993
 30
0.0
 11
0.5
 21
-5.487251056840142
 31
0.0
  0
LINE
  5
19CF
  8
0
  6
BYBLOCK
 62
     3
 10
-2.0
 20
-4.987251056840142
 30
0.0
 11
-3.5
 21
-4.987251056840142
 31
0.0
  0
SOLID
  5
19D0
  8
0
  6
BYBLOCK
 62
     3
 10
-0.5
 20
-4.987251056840142
 30
0.0
 11
-2.0
 21
-5.237251056840192
 31
0.0
 12
-2.0
 22
-4.737251056840092
 32
0.0
 13
-2.0
 23
-4.737251056840092
 33
0.0
  0
LINE
  5
19D1
  8
0
  6
BYBLOCK
 62
     3
 10
2.0
 20
-4.987251056840142
 30
0.0
 11
6.381086956521739
 21
-4.987251056840142
 31
0.0
  0
SOLID
  5
19D2
  8
0
  6
BYBLOCK
 62
     3
 10
0.5
 20
-4.987251056840142
 30
0.0
 11
2.0
 21
-5.237251056840192
 31
0.0
 12
2.0
 22
-4.737251056840092
 32
0.0
 13
2.0
 23
-4.737251056840092
 33
0.0
  0
INSERT
  5
19D3
  8
0
  6
BYBLOCK
 62
     3
  2
*X7
 10
0.0
 20
0.0
 30
0.0
  0
ENDBLK
  8
0
  0
BLOCK
  8
0
  2
*D5
 70
     1
 10
0.0
 20
0.0
 30
0.0
  0
LINE
  5
1A2C
  8
0
  6
BYBLOCK
 62
     3
 10
-1.931389088688759
 20
-0.363516406446429
 30
0.0
 11
-9.338408781177396
 21
-2.605451637472521
 31
0.0
  0
LINE
  5
1A2D
  8
0
  6
BYBLOCK
 62
     3
 10
-6.643600930341461
 20
-1.789795015449299
 30
0.0
 11
-6.643600930341461
 21
-1.789795015449299
 31
0.0
  0
SOLID
  5
1A2E
  8
0
  6
BYBLOCK
 62
     3
 10
-0.4957118180430478
 20
0.0710302245970986
 30
0.0
 11
-2.003813527196029
 21
-0.1242368613387625
 31
0.0
 12
-1.85896465018149
 22
-0.6027959515540954
 32
0.0
 13
-1.85896465018149
 23
-0.6027959515540954
 33
0.0
  0
TEXT
  5
1A2F
  8
0
  6
CONTINUOUS
 62
     3
 10
-9.221988876018672
 20
-2.476181723287939
 30
0.0
 40
2.0
  1
R0.1
 50
16.83986186563451
  7
돋움
  0
POINT
  5
1A30
  8
DEFPOINTS
  6
BYBLOCK
 62
     3
 10
-0.4000000000000004
 20
0.1000000000000005
 30
0.0
  0
POINT
  5
1A31
  8
DEFPOINTS
  6
BYBLOCK
 62
     3
 10
-0.4957118180430478
 20
0.0710302245970986
 30
0.0
  0
ENDBLK
  8
0
  0
BLOCK
  8
0
  2
*X6
 70
     1
 10
0.0
 20
0.0
 30
0.0
  0
TEXT
  5
1A66
  8
0
  6
CONTINUOUS
 62
     3
 10
-1.949728545590945
 20
52.74638438680276
 30
0.0
 40
2.0
  1
\U+2205
  7
돋움
  0
TEXT
  5
1A67
  8
0
  6
CONTINUOUS
 62
     3
 10
-0.1402047360671352
 20
52.74638438680276
 30
0.0
 40
2.0
  1
4
  7
돋움
  0
ENDBLK
  8
0
  0
BLOCK
  8
0
  2
*X7
 70
     1
 10
0.0
 20
0.0
 30
0.0
  0
TEXT
  5
1A69
  8
0
  6
CONTINUOUS
 62
     3
 10
3.797686335403726
 20
-4.842903230753185
 30
0.0
 40
2.0
  1
\U+2205
  7
돋움
  0
TEXT
  5
1A6A
  8
0
  6
CONTINUOUS
 62
     3
 10
5.607210144927535
 20
-4.842903230753185
 30
0.0
 40
2.0
  1
1
  7
돋움
  0
ENDBLK
  8
0
  0
ENDSEC
  0
SECTION
  2
ENTITIES
  0
LINE
  5
394
  8
0
 10
-1.5
 20
50.0
 30
0.0
 11
1.5
 21
50.0
 31
0.0
  0
LINE
  5
398
  8
0
 10
-2.0
 20
8.09807621135332
 30
0.0
 11
-2.0
 21
49.5
 31
0.0
  0
LINE
  5
399
  8
0
 10
2.0
 20
8.098076211353309
 30
0.0
 11
2.0
 21
49.5
 31
0.0
  0
LINE
  5
39A
  8
0
 10
0.5000000000000001
 20
2.5
 30
0.0
 11
2.0
 21
8.098076211353309
 31
0.0
  0
LINE
  5
39B
  8
0
 10
-0.4999999999999999
 20
2.5
 30
0.0
 11
-2.0
 21
8.09807621135332
 31
0.0
  0
LINE
  5
39C
  8
0
 10
-2.0
 20
49.5
 30
0.0
 11
2.0
 21
49.5
 31
0.0
  0
LINE
  5
39D
  8
0
 10
-2.0
 20
49.5
 30
0.0
 11
-1.5
 21
50.0
 31
0.0
  0
LINE
  5
39E
  8
0
 10
2.0
 20
49.5
 30
0.0
 11
1.5
 21
50.0
 31
0.0
  0
DIMENSION
  5
39F
  8
0
  2
*D1
 10
2.0
 20
52.6020365607158
 30
0.0
 11
-0.3306809265433256
 21
52.6020365607158
 31
0.0
 70
   160
  1
%%c<>
 13
-2.0
 23
49.5
 33
0.0
 14
2.0
 24
49.5
 34
0.0
  0
DIMENSION
  5
3C8
  8
0
  2
*D2
 10
12.76738532090152
 20
2.5
 30
0.0
 11
12.76738532090152
 21
8.436333108596935
 31
0.0
 70
   160
 13
0.5
 23
0.000000000000007
 33
0.0
 14
0.5000000000000001
 24
2.5
 34
0.0
 50
90.0
  0
DIMENSION
  5
89F
  8
0
  2
*D3
 10
16.31446712711066
 20
0.000000000000006
 30
0.0
 11
15.22039104015414
 21
25.0
 31
0.0
 70
    32
 13
1.5
 23
50.0
 33
0.0
 14
0.5
 24
0.000000000000007
 34
0.0
 50
90.0
  0
LINE
  5
1836
  8
0
 10
-0.5
 20
0.1000000000000001
 30
0.0
 11
-0.4999999999999999
 21
2.5
 31
0.0
  0
LINE
  5
183B
  8
0
 10
0.5
 20
0.100000000000007
 30
0.0
 11
0.5000000000000001
 21
2.5
 31
0.0
  0
LINE
  5
1932
  8
0
 10
-0.4
 20
0.0000000000000008
 30
0.0
 11
0.4
 21
0.0000000000000063
 31
0.0
  0
LINE
  5
1943
  8
0
  6
BYBLOCK
 62
     3
 10
0.0
 20
0.0
 30
0.0
 11
0.0
 21
0.0
 31
0.0
  0
LINE
  5
1944
  8
0
  6
BYBLOCK
 62
     3
 10
0.0
 20
0.0
 30
0.0
 11
0.0
 21
0.0
 31
0.0
  0
DIMENSION
  5
19A3
  8
0
  2
*D4
 10
0.5
 20
-4.987251056840142
 30
0.0
 11
4.940543478260869
 21
-3.842903230753186
 31
0.0
 70
    32
  1
%%C<>
 13
-0.5
 23
0.0000000000000001
 33
0.0
 14
0.5
 24
0.000000000000007
 34
0.0
  0
ARC
  5
1A12
  8
0
 10
-0.4000000000000004
 20
0.1000000000000005
 30
0.0
 40
0.1
 50
180.0000000000002
 51
270.0000000000002
  0
ARC
  5
1A13
  8
0
 10
0.3999999999999997
 20
0.1000000000000066
 30
0.0
 40
0.1
 50
270.0000000000002
 51
0.0000000000002036
  0
DIMENSION
  5
1A18
  8
0
  2
*D5
 10
-0.4000000000000004
 20
0.1000000000000005
 30
0.0
 11
-6.643600930341461
 21
-1.789795015449299
 31
0.0
 70
   164
 15
-0.4957118180430478
 25
0.0710302245970986
 35
0.0
 40
0.0
  0
LINE
  5
1A24
  8
0
  6
BYBLOCK
 62
     3
 10
-0.4000000000000004
 20
0.1000000000000005
 30
0.0
 11
-0.4000000000000004
 21
0.1000000000000005
 31
0.0
  0
LINE
  5
1A25
  8
0
  6
BYBLOCK
 62
     3
 10
-0.4000000000000004
 20
0.1000000000000005
 30
0.0
 11
-0.4000000000000004
 21
0.1000000000000005
 31
0.0
  0
ENDSEC
  0
EOF
