  0
SECTION
  2
HEADER
  9
$ACADVER
  1
AC1006
  9
$DWGCODEPAGE
  3
ansi_949
  9
$INSBASE
 10
0.0
 20
0.0
 30
0.0
  9
$EXTMIN
 10
-11.37254364076992
 20
-6.670604419696141
  9
$EXTMAX
 10
13.76267409899685
 20
54.80073221288972
  9
$LIMMIN
 10
0.0
 20
0.0
  9
$LIMMAX
 10
12.0
 20
9.0
  9
$ORTHOMODE
 70
     1
  9
$REGENMODE
 70
     1
  9
$FILLMODE
 70
     1
  9
$QTEXTMODE
 70
     0
  9
$MIRRTEXT
 70
     0
  9
$DRAGMODE
 70
     2
  9
$LTSCALE
 40
1.0
  9
$OSMODE
 70
    37
  9
$ATTMODE
 70
     1
  9
$TEXTSIZE
 40
0.2
  9
$TRACEWID
 40
0.05
  9
$TEXTSTYLE
  7
STANDARD
  9
$CLAYER
  8
0
  9
$CELTYPE
  6
BYLAYER
  9
$CECOLOR
 62
   256
  9
$DIMSCALE
 40
1.0
  9
$DIMASZ
 40
1.5
  9
$DIMEXO
 40
0.5
  9
$DIMDLI
 40
2.0
  9
$DIMRND
 40
0.0
  9
$DIMDLE
 40
0.0
  9
$DIMEXE
 40
0.5
  9
$DIMTP
 40
0.0
  9
$DIMTM
 40
0.0
  9
$DIMTXT
 40
2.0
  9
$DIMCEN
 40
0.0
  9
$DIMTSZ
 40
0.0
  9
$DIMTOL
 70
     0
  9
$DIMLIM
 70
     0
  9
$DIMTIH
 70
     0
  9
$DIMTOH
 70
     0
  9
$DIMSE1
 70
     0
  9
$DIMSE2
 70
     0
  9
$DIMTAD
 70
     1
  9
$DIMZIN
 70
     0
  9
$DIMBLK
  1

  9
$DIMASO
 70
     1
  9
$DIMSHO
 70
     1
  9
$DIMPOST
  1

  9
$DIMAPOST
  1

  9
$DIMALT
 70
     0
  9
$DIMALTD
 70
     2
  9
$DIMALTF
 40
25.4
  9
$DIMLFAC
 40
1.0
  9
$DIMTOFL
 70
     0
  9
$DIMTVP
 40
0.0
  9
$DIMTIX
 70
     0
  9
$DIMSOXD
 70
     0
  9
$DIMSAH
 70
     0
  9
$DIMBLK1
  1

  9
$DIMBLK2
  1

  9
$LUNITS
 70
     2
  9
$LUPREC
 70
     4
  9
$SKETCHINC
 40
0.1
  9
$FILLETRAD
 40
0.3
  9
$AUNITS
 70
     0
  9
$AUPREC
 70
     0
  9
$MENU
  1
.
  9
$ELEVATION
 40
0.0
  9
$THICKNESS
 40
0.0
  9
$LIMCHECK
 70
     0
  9
$CHAMFERA
 40
0.0
  9
$CHAMFERB
 40
0.0
  9
$SKPOLY
 70
     0
  9
$TDCREATE
 40
2453353.842125822
  9
$TDUPDATE
 40
2459506.199983947
  9
$TDINDWG
 40
0.0786782986
  9
$TDUSRTIMER
 40
0.0786435648
  9
$USRTIMER
 70
     1
  9
$ANGBASE
 50
0.0
  9
$ANGDIR
 70
     0
  9
$PDMODE
 70
     0
  9
$PDSIZE
 40
0.0
  9
$PLINEWID
 40
0.0
  9
$COORDS
 70
     1
  9
$SPLFRAME
 70
     0
  9
$SPLINETYPE
 70
     6
  9
$SPLINESEGS
 70
     8
  9
$ATTDIA
 70
     0
  9
$ATTREQ
 70
     1
  9
$HANDLING
 70
     1
  9
$HANDSEED
  5
2366
  9
$SURFTAB1
 70
     6
  9
$SURFTAB2
 70
     6
  9
$SURFTYPE
 70
     6
  9
$SURFU
 70
     6
  9
$SURFV
 70
     6
  9
$UCSNAME
  2

  9
$UCSORG
 10
0.0
 20
0.0
 30
0.0
  9
$UCSXDIR
 10
1.0
 20
0.0
 30
0.0
  9
$UCSYDIR
 10
0.0
 20
1.0
 30
0.0
  9
$USERI1
 70
     0
  9
$USERI2
 70
     0
  9
$USERI3
 70
     0
  9
$USERI4
 70
     0
  9
$USERI5
 70
     0
  9
$USERR1
 40
0.0
  9
$USERR2
 40
0.0
  9
$USERR3
 40
0.0
  9
$USERR4
 40
0.0
  9
$USERR5
 40
0.0
  9
$WORLDVIEW
 70
     1
  0
ENDSEC
  0
SECTION
  2
TABLES
  0
TABLE
  2
VPORT
 70
     1
  0
VPORT
  2
*ACTIVE
 70
     0
 10
0.0
 20
0.0
 11
1.0
 21
1.0
 12
1.195065229113463
 22
24.06506389659679
 13
0.0
 23
0.0
 14
0.5
 24
0.5
 15
0.5
 25
0.5
 16
0.0
 26
0.0
 36
1.0
 17
0.0
 27
0.0
 37
0.0
 40
62.70076336523758
 41
1.701534170153416
 42
50.0
 43
0.0
 44
0.0
 50
0.0
 51
0.0
 71
    16
 72
  1000
 73
     1
 74
     3
 75
     0
 76
     0
 77
     0
 78
     0
  0
ENDTAB
  0
TABLE
  2
LTYPE
 70
     1
  0
LTYPE
  2
CONTINUOUS
 70
     0
  3
Solid line
 72
    65
 73
     0
 40
0.0
  0
ENDTAB
  0
TABLE
  2
LAYER
 70
     2
  0
LAYER
  2
0
 70
     0
 62
     7
  6
CONTINUOUS
  0
LAYER
  2
DEFPOINTS
 70
     0
 62
     7
  6
CONTINUOUS
  0
ENDTAB
  0
TABLE
  2
STYLE
 70
     2
  0
STYLE
  2
STANDARD
 70
     0
 40
0.0
 41
1.0
 50
0.0
 71
     0
 42
0.2
  3
IC-txt.shx
  4

  0
STYLE
  2
돋움
 70
     0
 40
0.0
 41
1.0
 50
0.0
 71
     0
 42
0.2
  3
Dotum.ttf
  4

  0
ENDTAB
  0
TABLE
  2
VIEW
 70
     0
  0
ENDTAB
  0
TABLE
  2
UCS
 70
     0
  0
ENDTAB
  0
ENDSEC
  0
SECTION
  2
BLOCKS
  0
BLOCK
  8
0
  2
*D1
 70
     1
 10
0.0
 20
0.0
 30
0.0
  0
POINT
  5
220A
  8
DEFPOINTS
  6
BYBLOCK
 62
     3
 10
-2.0
 20
49.5
 30
0.0
  0
POINT
  5
220B
  8
DEFPOINTS
  6
BYBLOCK
 62
     3
 10
2.0
 20
49.5
 30
0.0
  0
LINE
  5
220C
  8
0
  6
BYBLOCK
 62
     3
 10
-2.0
 20
50.0
 30
0.0
 11
-2.0
 21
53.1020365607158
 31
0.0
  0
LINE
  5
220D
  8
0
  6
BYBLOCK
 62
     3
 10
2.0
 20
50.0
 30
0.0
 11
2.0
 21
53.1020365607158
 31
0.0
  0
LINE
  5
220E
  8
0
  6
BYBLOCK
 62
     3
 10
-2.0
 20
52.6020365607158
 30
0.0
 11
2.0
 21
52.6020365607158
 31
0.0
  0
SOLID
  5
220F
  8
0
  6
BYBLOCK
 62
     3
 10
-2.0
 20
52.6020365607158
 30
0.0
 11
-0.5
 21
52.35203656071575
 31
0.0
 12
-0.5
 22
52.85203656071585
 32
0.0
 13
-0.5
 23
52.85203656071585
 33
0.0
  0
SOLID
  5
2210
  8
0
  6
BYBLOCK
 62
     3
 10
2.0
 20
52.6020365607158
 30
0.0
 11
0.5
 21
52.35203656071575
 31
0.0
 12
0.5
 22
52.85203656071585
 32
0.0
 13
0.5
 23
52.85203656071585
 33
0.0
  0
INSERT
  5
2211
  8
0
  6
BYBLOCK
 62
     3
  2
*X8
 10
0.0
 20
0.0
 30
0.0
  0
ENDBLK
  8
0
  0
BLOCK
  8
0
  2
*D2
 70
     1
 10
0.0
 20
0.0
 30
0.0
  0
POINT
  5
221A
  8
DEFPOINTS
  6
BYBLOCK
 62
     3
 10
1.5
 20
50.0
 30
0.0
  0
POINT
  5
221B
  8
DEFPOINTS
  6
BYBLOCK
 62
     3
 10
0.5
 20
0.000000000000007
 30
0.0
  0
LINE
  5
221C
  8
0
  6
BYBLOCK
 62
     3
 10
2.0
 20
50.0
 30
0.0
 11
13.76267409899685
 21
50.0
 31
0.0
  0
LINE
  5
221D
  8
0
  6
BYBLOCK
 62
     3
 10
1.0
 20
0.0000000000000071
 30
0.0
 11
13.76267409899685
 21
0.0000000000000071
 31
0.0
  0
LINE
  5
221E
  8
0
  6
BYBLOCK
 62
     3
 10
13.26267409899685
 20
50.0
 30
0.0
 11
13.26267409899685
 21
0.0000000000000071
 31
0.0
  0
SOLID
  5
221F
  8
0
  6
BYBLOCK
 62
     3
 10
13.26267409899685
 20
50.0
 30
0.0
 11
13.0126740989968
 21
48.5
 31
0.0
 12
13.5126740989969
 22
48.5
 32
0.0
 13
13.5126740989969
 23
48.5
 33
0.0
  0
SOLID
  5
2220
  8
0
  6
BYBLOCK
 62
     3
 10
13.26267409899685
 20
0.0000000000000071
 30
0.0
 11
13.0126740989968
 21
1.500000000000007
 31
0.0
 12
13.5126740989969
 22
1.500000000000007
 32
0.0
 13
13.5126740989969
 23
1.500000000000007
 33
0.0
  0
TEXT
  5
2221
  8
0
  6
CONTINUOUS
 62
     3
 10
13.16859801204032
 20
23.38095238095239
 30
0.0
 40
2.0
  1
50
 50
90.0
  7
돋움
  0
ENDBLK
  8
0
  0
BLOCK
  8
0
  2
*D3
 70
     1
 10
0.0
 20
0.0
 30
0.0
  0
POINT
  5
1F10
  8
DEFPOINTS
  6
BYBLOCK
 62
     3
 10
-0.7500000000000018
 20
-0.0000000000000016
 30
0.0
  0
POINT
  5
1F11
  8
DEFPOINTS
  6
BYBLOCK
 62
     3
 10
0.7500000000000018
 20
0.0000000000000087
 30
0.0
  0
LINE
  5
1F12
  8
0
  6
BYBLOCK
 62
     3
 10
-0.7500000000000018
 20
-0.5000000000000016
 30
0.0
 11
-0.7500000000000018
 21
-6.670604419696141
 31
0.0
  0
LINE
  5
1F13
  8
0
  6
BYBLOCK
 62
     3
 10
0.7500000000000018
 20
-0.4999999999999913
 30
0.0
 11
0.7500000000000018
 21
-6.670604419696141
 31
0.0
  0
LINE
  5
1F14
  8
0
  6
BYBLOCK
 62
     3
 10
2.250000000000002
 20
-6.170604419696141
 30
0.0
 11
3.750000000000002
 21
-6.170604419696141
 31
0.0
  0
SOLID
  5
1F15
  8
0
  6
BYBLOCK
 62
     3
 10
-0.7500000000000018
 20
-6.170604419696141
 30
0.0
 11
-2.250000000000002
 21
-6.420604419696191
 31
0.0
 12
-2.250000000000002
 22
-5.920604419696091
 32
0.0
 13
-2.250000000000002
 23
-5.920604419696091
 33
0.0
  0
LINE
  5
1F16
  8
0
  6
BYBLOCK
 62
     3
 10
-2.250000000000002
 20
-6.170604419696141
 30
0.0
 11
-9.590231326254111
 21
-6.170604419696141
 31
0.0
  0
SOLID
  5
1F17
  8
0
  6
BYBLOCK
 62
     3
 10
0.7500000000000018
 20
-6.170604419696141
 30
0.0
 11
2.250000000000002
 21
-6.420604419696191
 31
0.0
 12
2.250000000000002
 22
-5.920604419696091
 32
0.0
 13
2.250000000000002
 23
-5.920604419696091
 33
0.0
  0
INSERT
  5
1F18
  8
0
  6
BYBLOCK
 62
     3
  2
*X9
 10
0.0
 20
0.0
 30
0.0
  0
ENDBLK
  8
0
  0
BLOCK
  8
0
  2
*D4
 70
     1
 10
0.0
 20
0.0
 30
0.0
  0
POINT
  5
2260
  8
DEFPOINTS
  6
BYBLOCK
 62
     3
 10
0.7500000000000018
 20
0.0000000000000087
 30
0.0
  0
POINT
  5
2261
  8
DEFPOINTS
  6
BYBLOCK
 62
     3
 10
0.7500000000000019
 20
4.000000000000002
 30
0.0
  0
LINE
  5
2262
  8
0
  6
BYBLOCK
 62
     3
 10
1.250000000000002
 20
0.0000000000000087
 30
0.0
 11
9.908432820096426
 21
0.0000000000000087
 31
0.0
  0
LINE
  5
2263
  8
0
  6
BYBLOCK
 62
     3
 10
1.250000000000002
 20
4.000000000000002
 30
0.0
 11
9.908432820096426
 21
4.000000000000002
 31
0.0
  0
LINE
  5
2264
  8
0
  6
BYBLOCK
 62
     3
 10
9.408432820096426
 20
0.0000000000000087
 30
0.0
 11
9.408432820096426
 21
4.000000000000002
 31
0.0
  0
SOLID
  5
2265
  8
0
  6
BYBLOCK
 62
     3
 10
9.408432820096426
 20
0.0000000000000087
 30
0.0
 11
9.658432820096476
 21
1.500000000000009
 31
0.0
 12
9.158432820096376
 22
1.500000000000009
 32
0.0
 13
9.158432820096376
 23
1.500000000000009
 33
0.0
  0
SOLID
  5
2266
  8
0
  6
BYBLOCK
 62
     3
 10
9.408432820096426
 20
4.000000000000002
 30
0.0
 11
9.658432820096476
 21
2.500000000000002
 31
0.0
 12
9.158432820096376
 22
2.500000000000002
 32
0.0
 13
9.158432820096376
 23
2.500000000000002
 33
0.0
  0
TEXT
  5
2267
  8
0
  6
CONTINUOUS
 62
     3
 10
9.315715428792078
 20
1.285714285714291
 30
0.0
 40
2.0
  1
4
 50
90.0
  7
돋움
  0
ENDBLK
  8
0
  0
BLOCK
  8
0
  2
*D7
 70
     1
 10
0.0
 20
0.0
 30
0.0
  0
LINE
  5
231F
  8
0
  6
BYBLOCK
 62
     3
 10
-2.208881517402268
 20
-0.0825386356182954
 30
0.0
 11
-10.34098241065264
 21
-1.851186921267912
 31
0.0
  0
LINE
  5
2320
  8
0
  6
BYBLOCK
 62
     3
 10
-7.345466985815918
 20
-1.199693132599874
 30
0.0
 11
-7.345466985815918
 21
-1.199693132599874
 31
0.0
  0
SOLID
  5
2321
  8
0
  6
BYBLOCK
 62
     3
 10
-0.7431469195670474
 20
0.2362435607302835
 30
0.0
 11
-2.262011883460375
 21
0.1617504640209569
 31
0.0
 12
-2.155751151344161
 22
-0.3268277352575477
 32
0.0
 13
-2.155751151344161
 23
-0.3268277352575477
 33
0.0
  0
TEXT
  5
2322
  8
0
  6
CONTINUOUS
 62
     3
 10
-10.38912562741554
 20
-1.769553588877623
 30
0.0
 40
2.0
  1
R0.3
 50
12.2701575529189
  7
돋움
  0
POINT
  5
2323
  8
DEFPOINTS
  6
BYBLOCK
 62
     3
 10
-0.4500000000000027
 20
0.2999999999999995
 30
0.0
  0
POINT
  5
2324
  8
DEFPOINTS
  6
BYBLOCK
 62
     3
 10
-0.7431469195670474
 20
0.2362435607302835
 30
0.0
  0
ENDBLK
  8
0
  0
BLOCK
  8
0
  2
*X8
 70
     1
 10
0.0
 20
0.0
 30
0.0
  0
TEXT
  5
235D
  8
0
  6
CONTINUOUS
 62
     3
 10
-1.949728545590945
 20
52.74638438680276
 30
0.0
 40
2.0
  1
\U+2205
  7
돋움
  0
TEXT
  5
235E
  8
0
  6
CONTINUOUS
 62
     3
 10
-0.1402047360671352
 20
52.74638438680276
 30
0.0
 40
2.0
  1
4
  7
돋움
  0
ENDBLK
  8
0
  0
BLOCK
  8
0
  2
*X9
 70
     1
 10
0.0
 20
0.0
 30
0.0
  0
TEXT
  5
2360
  8
0
  6
CONTINUOUS
 62
     3
 10
-9.235026874908355
 20
-6.026256593609185
 30
0.0
 40
2.0
  1
\U+2205
  7
돋움
  0
TEXT
  5
2361
  8
0
  6
CONTINUOUS
 62
     3
 10
-7.425503065384546
 20
-6.026256593609185
 30
0.0
 40
2.0
  1
1.5
  7
돋움
  0
ENDBLK
  8
0
  0
ENDSEC
  0
SECTION
  2
ENTITIES
  0
LINE
  5
394
  8
0
 10
-1.5
 20
50.0
 30
0.0
 11
1.5
 21
50.0
 31
0.0
  0
LINE
  5
398
  8
0
 10
-2.0
 20
8.665063509461095
 30
0.0
 11
-2.0
 21
49.5
 31
0.0
  0
LINE
  5
399
  8
0
 10
2.0
 20
8.665063509461085
 30
0.0
 11
2.0
 21
49.5
 31
0.0
  0
LINE
  5
39A
  8
0
 10
0.7500000000000019
 20
4.000000000000002
 30
0.0
 11
2.0
 21
8.665063509461085
 31
0.0
  0
LINE
  5
39B
  8
0
 10
-0.7500000000000017
 20
4.000000000000002
 30
0.0
 11
-2.0
 21
8.665063509461095
 31
0.0
  0
LINE
  5
39C
  8
0
 10
-2.0
 20
49.5
 30
0.0
 11
2.0
 21
49.5
 31
0.0
  0
LINE
  5
39D
  8
0
 10
-2.0
 20
49.5
 30
0.0
 11
-1.5
 21
50.0
 31
0.0
  0
LINE
  5
39E
  8
0
 10
2.0
 20
49.5
 30
0.0
 11
1.5
 21
50.0
 31
0.0
  0
DIMENSION
  5
39F
  8
0
  2
*D1
 10
2.0
 20
52.6020365607158
 30
0.0
 11
-0.3306809265433256
 21
52.6020365607158
 31
0.0
 70
   160
  1
%%c<>
 13
-2.0
 23
49.5
 33
0.0
 14
2.0
 24
49.5
 34
0.0
  0
DIMENSION
  5
89F
  8
0
  2
*D2
 10
13.26267409899685
 20
0.0000000000000062
 30
0.0
 11
12.16859801204033
 21
25.0
 31
0.0
 70
    32
 13
1.5
 23
50.0
 33
0.0
 14
0.5
 24
0.000000000000007
 34
0.0
 50
90.0
  0
LINE
  5
1836
  8
0
 10
-0.7500000000000018
 20
0.2999999999999984
 30
0.0
 11
-0.7500000000000017
 21
4.000000000000002
 31
0.0
  0
LINE
  5
183B
  8
0
 10
0.7500000000000018
 20
0.3000000000000088
 30
0.0
 11
0.7500000000000019
 21
4.000000000000002
 31
0.0
  0
LINE
  5
1932
  8
0
 10
-0.4500000000000017
 20
0.0000000000000005
 30
0.0
 11
0.4500000000000017
 21
0.0000000000000067
 31
0.0
  0
DIMENSION
  5
19A3
  8
0
  2
*D3
 10
0.7500000000000018
 20
-6.170604419696141
 30
0.0
 11
-6.425503065384546
 21
-6.170604419696141
 31
0.0
 70
   160
  1
%%C<>
 13
-0.7500000000000018
 23
-0.0000000000000016
 33
0.0
 14
0.7500000000000018
 24
0.0000000000000087
 34
0.0
  0
DIMENSION
  5
21C6
  8
0
  2
*D4
 10
9.408432820096426
 20
4.000000000000001
 30
0.0
 11
8.315715428792078
 21
2.000000000000005
 31
0.0
 70
    32
 13
0.7500000000000018
 23
0.0000000000000087
 33
0.0
 14
0.7500000000000019
 24
4.000000000000002
 34
0.0
 50
90.0
  0
ARC
  5
2309
  8
0
 10
-0.4500000000000027
 20
0.2999999999999995
 30
0.0
 40
0.3
 50
180.0000000000002
 51
270.0000000000002
  0
ARC
  5
230A
  8
0
 10
0.4500000000000007
 20
0.3000000000000077
 30
0.0
 40
0.3
 50
270.0000000000002
 51
0.0000000000002036
  0
DIMENSION
  5
230B
  8
0
  2
*D7
 10
-0.4500000000000027
 20
0.2999999999999995
 30
0.0
 11
-7.345466985815918
 21
-1.199693132599874
 31
0.0
 70
   164
 15
-0.7431469195670474
 25
0.2362435607302835
 35
0.0
 40
0.0
  0
LINE
  5
2317
  8
0
  6
BYBLOCK
 62
     3
 10
-0.4500000000000027
 20
0.2999999999999995
 30
0.0
 11
-0.4500000000000027
 21
0.2999999999999995
 31
0.0
  0
LINE
  5
2318
  8
0
  6
BYBLOCK
 62
     3
 10
-0.4500000000000027
 20
0.2999999999999995
 30
0.0
 11
-0.4500000000000027
 21
0.2999999999999995
 31
0.0
  0
ENDSEC
  0
EOF
