  0
SECTION
  2
HEADER
  9
$ACADVER
  1
AC1006
  9
$DWGCODEPAGE
  3
ansi_949
  9
$INSBASE
 10
0.0
 20
0.0
 30
0.0
  9
$EXTMIN
 10
-10.27760616588446
 20
-5.739152365792235
  9
$EXTMAX
 10
13.48943181212164
 20
54.80073221288972
  9
$LIMMIN
 10
0.0
 20
0.0
  9
$LIMMAX
 10
12.0
 20
9.0
  9
$ORTHOMODE
 70
     1
  9
$REGENMODE
 70
     1
  9
$FILLMODE
 70
     1
  9
$QTEXTMODE
 70
     0
  9
$MIRRTEXT
 70
     0
  9
$DRAGMODE
 70
     2
  9
$LTSCALE
 40
1.0
  9
$OSMODE
 70
    37
  9
$ATTMODE
 70
     1
  9
$TEXTSIZE
 40
0.2
  9
$TRACEWID
 40
0.05
  9
$TEXTSTYLE
  7
STANDARD
  9
$CLAYER
  8
0
  9
$CELTYPE
  6
BYLAYER
  9
$CECOLOR
 62
   256
  9
$DIMSCALE
 40
1.0
  9
$DIMASZ
 40
1.5
  9
$DIMEXO
 40
0.5
  9
$DIMDLI
 40
2.0
  9
$DIMRND
 40
0.0
  9
$DIMDLE
 40
0.0
  9
$DIMEXE
 40
0.5
  9
$DIMTP
 40
0.0
  9
$DIMTM
 40
0.0
  9
$DIMTXT
 40
2.0
  9
$DIMCEN
 40
0.0
  9
$DIMTSZ
 40
0.0
  9
$DIMTOL
 70
     0
  9
$DIMLIM
 70
     0
  9
$DIMTIH
 70
     0
  9
$DIMTOH
 70
     0
  9
$DIMSE1
 70
     0
  9
$DIMSE2
 70
     0
  9
$DIMTAD
 70
     1
  9
$DIMZIN
 70
     0
  9
$DIMBLK
  1

  9
$DIMASO
 70
     1
  9
$DIMSHO
 70
     1
  9
$DIMPOST
  1

  9
$DIMAPOST
  1

  9
$DIMALT
 70
     0
  9
$DIMALTD
 70
     2
  9
$DIMALTF
 40
25.4
  9
$DIMLFAC
 40
1.0
  9
$DIMTOFL
 70
     0
  9
$DIMTVP
 40
0.0
  9
$DIMTIX
 70
     0
  9
$DIMSOXD
 70
     0
  9
$DIMSAH
 70
     0
  9
$DIMBLK1
  1

  9
$DIMBLK2
  1

  9
$LUNITS
 70
     2
  9
$LUPREC
 70
     4
  9
$SKETCHINC
 40
0.1
  9
$FILLETRAD
 40
0.5
  9
$AUNITS
 70
     0
  9
$AUPREC
 70
     0
  9
$MENU
  1
.
  9
$ELEVATION
 40
0.0
  9
$THICKNESS
 40
0.0
  9
$LIMCHECK
 70
     0
  9
$CHAMFERA
 40
0.0
  9
$CHAMFERB
 40
0.0
  9
$SKPOLY
 70
     0
  9
$TDCREATE
 40
2453353.842125822
  9
$TDUPDATE
 40
2459506.200298067
  9
$TDINDWG
 40
0.0815486458
  9
$TDUSRTIMER
 40
0.0815139352
  9
$USRTIMER
 70
     1
  9
$ANGBASE
 50
0.0
  9
$ANGDIR
 70
     0
  9
$PDMODE
 70
     0
  9
$PDSIZE
 40
0.0
  9
$PLINEWID
 40
0.0
  9
$COORDS
 70
     1
  9
$SPLFRAME
 70
     0
  9
$SPLINETYPE
 70
     6
  9
$SPLINESEGS
 70
     8
  9
$ATTDIA
 70
     0
  9
$ATTREQ
 70
     1
  9
$HANDLING
 70
     1
  9
$HANDSEED
  5
26C0
  9
$SURFTAB1
 70
     6
  9
$SURFTAB2
 70
     6
  9
$SURFTYPE
 70
     6
  9
$SURFU
 70
     6
  9
$SURFV
 70
     6
  9
$UCSNAME
  2

  9
$UCSORG
 10
0.0
 20
0.0
 30
0.0
  9
$UCSXDIR
 10
1.0
 20
0.0
 30
0.0
  9
$UCSYDIR
 10
0.0
 20
1.0
 30
0.0
  9
$USERI1
 70
     0
  9
$USERI2
 70
     0
  9
$USERI3
 70
     0
  9
$USERI4
 70
     0
  9
$USERI5
 70
     0
  9
$USERR1
 40
0.0
  9
$USERR2
 40
0.0
  9
$USERR3
 40
0.0
  9
$USERR4
 40
0.0
  9
$USERR5
 40
0.0
  9
$WORLDVIEW
 70
     1
  0
ENDSEC
  0
SECTION
  2
TABLES
  0
TABLE
  2
VPORT
 70
     1
  0
VPORT
  2
*ACTIVE
 70
     0
 10
0.0
 20
0.0
 11
1.0
 21
1.0
 12
1.605912823118588
 22
24.53078992354874
 13
0.0
 23
0.0
 14
0.5
 24
0.5
 15
0.5
 25
0.5
 16
0.0
 26
0.0
 36
1.0
 17
0.0
 27
0.0
 37
0.0
 40
61.7506822702556
 41
1.701534170153416
 42
50.0
 43
0.0
 44
0.0
 50
0.0
 51
0.0
 71
    16
 72
  1000
 73
     1
 74
     3
 75
     0
 76
     0
 77
     0
 78
     0
  0
ENDTAB
  0
TABLE
  2
LTYPE
 70
     1
  0
LTYPE
  2
CONTINUOUS
 70
     0
  3
Solid line
 72
    65
 73
     0
 40
0.0
  0
ENDTAB
  0
TABLE
  2
LAYER
 70
     2
  0
LAYER
  2
0
 70
     0
 62
     7
  6
CONTINUOUS
  0
LAYER
  2
DEFPOINTS
 70
     0
 62
     7
  6
CONTINUOUS
  0
ENDTAB
  0
TABLE
  2
STYLE
 70
     2
  0
STYLE
  2
STANDARD
 70
     0
 40
0.0
 41
1.0
 50
0.0
 71
     0
 42
0.2
  3
IC-txt.shx
  4

  0
STYLE
  2
돋움
 70
     0
 40
0.0
 41
1.0
 50
0.0
 71
     0
 42
0.2
  3
Dotum.ttf
  4

  0
ENDTAB
  0
TABLE
  2
VIEW
 70
     0
  0
ENDTAB
  0
TABLE
  2
UCS
 70
     0
  0
ENDTAB
  0
ENDSEC
  0
SECTION
  2
BLOCKS
  0
BLOCK
  8
0
  2
*D1
 70
     1
 10
0.0
 20
0.0
 30
0.0
  0
POINT
  5
212F
  8
DEFPOINTS
  6
BYBLOCK
 62
     3
 10
-2.0
 20
49.5
 30
0.0
  0
POINT
  5
2130
  8
DEFPOINTS
  6
BYBLOCK
 62
     3
 10
2.0
 20
49.5
 30
0.0
  0
LINE
  5
2131
  8
0
  6
BYBLOCK
 62
     3
 10
-2.0
 20
50.0
 30
0.0
 11
-2.0
 21
53.1020365607158
 31
0.0
  0
LINE
  5
2132
  8
0
  6
BYBLOCK
 62
     3
 10
2.0
 20
50.0
 30
0.0
 11
2.0
 21
53.1020365607158
 31
0.0
  0
LINE
  5
2133
  8
0
  6
BYBLOCK
 62
     3
 10
-2.0
 20
52.6020365607158
 30
0.0
 11
2.0
 21
52.6020365607158
 31
0.0
  0
SOLID
  5
2134
  8
0
  6
BYBLOCK
 62
     3
 10
-2.0
 20
52.6020365607158
 30
0.0
 11
-0.5
 21
52.35203656071575
 31
0.0
 12
-0.5
 22
52.85203656071585
 32
0.0
 13
-0.5
 23
52.85203656071585
 33
0.0
  0
SOLID
  5
2135
  8
0
  6
BYBLOCK
 62
     3
 10
2.0
 20
52.6020365607158
 30
0.0
 11
0.5
 21
52.35203656071575
 31
0.0
 12
0.5
 22
52.85203656071585
 32
0.0
 13
0.5
 23
52.85203656071585
 33
0.0
  0
INSERT
  5
2136
  8
0
  6
BYBLOCK
 62
     3
  2
*X10
 10
0.0
 20
0.0
 30
0.0
  0
ENDBLK
  8
0
  0
BLOCK
  8
0
  2
*D2
 70
     1
 10
0.0
 20
0.0
 30
0.0
  0
POINT
  5
24AC
  8
DEFPOINTS
  6
BYBLOCK
 62
     3
 10
1.5
 20
50.0
 30
0.0
  0
POINT
  5
24AD
  8
DEFPOINTS
  6
BYBLOCK
 62
     3
 10
1.0
 20
0.0000000000000071
 30
0.0
  0
LINE
  5
24AE
  8
0
  6
BYBLOCK
 62
     3
 10
2.0
 20
50.0
 30
0.0
 11
13.48943181212164
 21
50.0
 31
0.0
  0
LINE
  5
24AF
  8
0
  6
BYBLOCK
 62
     3
 10
1.5
 20
0.0000000000000071
 30
0.0
 11
13.48943181212164
 21
0.0000000000000071
 31
0.0
  0
LINE
  5
24B0
  8
0
  6
BYBLOCK
 62
     3
 10
12.98943181212164
 20
50.0
 30
0.0
 11
12.98943181212164
 21
0.0000000000000071
 31
0.0
  0
SOLID
  5
24B1
  8
0
  6
BYBLOCK
 62
     3
 10
12.98943181212164
 20
50.0
 30
0.0
 11
12.73943181212159
 21
48.5
 31
0.0
 12
13.23943181212169
 22
48.5
 32
0.0
 13
13.23943181212169
 23
48.5
 33
0.0
  0
SOLID
  5
24B2
  8
0
  6
BYBLOCK
 62
     3
 10
12.98943181212164
 20
0.0000000000000071
 30
0.0
 11
12.73943181212159
 21
1.500000000000007
 31
0.0
 12
13.23943181212169
 22
1.500000000000007
 32
0.0
 13
13.23943181212169
 23
1.500000000000007
 33
0.0
  0
TEXT
  5
24B3
  8
0
  6
CONTINUOUS
 62
     3
 10
12.89535572516512
 20
23.38095238095239
 30
0.0
 40
2.0
  1
50
 50
90.0
  7
돋움
  0
ENDBLK
  8
0
  0
BLOCK
  8
0
  2
*D3
 70
     1
 10
0.0
 20
0.0
 30
0.0
  0
POINT
  5
2432
  8
DEFPOINTS
  6
BYBLOCK
 62
     3
 10
-1.000000000000002
 20
-0.0000000000000033
 30
0.0
  0
POINT
  5
2433
  8
DEFPOINTS
  6
BYBLOCK
 62
     3
 10
1.0
 20
0.0000000000000071
 30
0.0
  0
LINE
  5
2434
  8
0
  6
BYBLOCK
 62
     3
 10
-1.000000000000002
 20
-0.5000000000000033
 30
0.0
 11
-1.000000000000002
 21
-5.739152365792235
 31
0.0
  0
LINE
  5
2435
  8
0
  6
BYBLOCK
 62
     3
 10
1.0
 20
-0.4999999999999929
 30
0.0
 11
1.0
 21
-5.739152365792235
 31
0.0
  0
LINE
  5
2436
  8
0
  6
BYBLOCK
 62
     3
 10
2.5
 20
-5.239152365792235
 30
0.0
 11
4.0
 21
-5.239152365792235
 31
0.0
  0
SOLID
  5
2437
  8
0
  6
BYBLOCK
 62
     3
 10
-1.000000000000002
 20
-5.239152365792235
 30
0.0
 11
-2.500000000000002
 21
-5.489152365792284
 31
0.0
 12
-2.500000000000002
 22
-4.989152365792185
 32
0.0
 13
-2.500000000000002
 23
-4.989152365792185
 33
0.0
  0
LINE
  5
2438
  8
0
  6
BYBLOCK
 62
     3
 10
-2.500000000000002
 20
-5.239152365792235
 30
0.0
 11
-5.981630434782611
 21
-5.239152365792235
 31
0.0
  0
SOLID
  5
2439
  8
0
  6
BYBLOCK
 62
     3
 10
1.0
 20
-5.239152365792235
 30
0.0
 11
2.5
 21
-5.489152365792284
 31
0.0
 12
2.5
 22
-4.989152365792185
 32
0.0
 13
2.5
 23
-4.989152365792185
 33
0.0
  0
INSERT
  5
243A
  8
0
  6
BYBLOCK
 62
     3
  2
*X11
 10
0.0
 20
0.0
 30
0.0
  0
ENDBLK
  8
0
  0
BLOCK
  8
0
  2
*D4
 70
     1
 10
0.0
 20
0.0
 30
0.0
  0
POINT
  5
24BC
  8
DEFPOINTS
  6
BYBLOCK
 62
     3
 10
1.0
 20
0.0000000000000071
 30
0.0
  0
POINT
  5
24BD
  8
DEFPOINTS
  6
BYBLOCK
 62
     3
 10
1.000000000000002
 20
6.000000000000002
 30
0.0
  0
LINE
  5
24BE
  8
0
  6
BYBLOCK
 62
     3
 10
1.5
 20
0.0000000000000071
 30
0.0
 11
10.30084611810532
 21
0.0000000000000071
 31
0.0
  0
LINE
  5
24BF
  8
0
  6
BYBLOCK
 62
     3
 10
1.500000000000002
 20
6.000000000000002
 30
0.0
 11
10.30084611810532
 21
6.000000000000002
 31
0.0
  0
LINE
  5
24C0
  8
0
  6
BYBLOCK
 62
     3
 10
9.80084611810532
 20
0.0000000000000071
 30
0.0
 11
9.80084611810532
 21
6.000000000000002
 31
0.0
  0
SOLID
  5
24C1
  8
0
  6
BYBLOCK
 62
     3
 10
9.80084611810532
 20
0.0000000000000071
 30
0.0
 11
10.05084611810537
 21
1.500000000000007
 31
0.0
 12
9.55084611810527
 22
1.500000000000007
 32
0.0
 13
9.55084611810527
 23
1.500000000000007
 33
0.0
  0
SOLID
  5
24C2
  8
0
  6
BYBLOCK
 62
     3
 10
9.80084611810532
 20
6.000000000000002
 30
0.0
 11
10.05084611810537
 21
4.500000000000002
 31
0.0
 12
9.55084611810527
 22
4.500000000000002
 32
0.0
 13
9.55084611810527
 23
4.500000000000002
 33
0.0
  0
TEXT
  5
24C3
  8
0
  6
CONTINUOUS
 62
     3
 10
9.705411335496624
 20
2.380952380952386
 30
0.0
 40
2.0
  1
6
 50
90.0
  7
돋움
  0
ENDBLK
  8
0
  0
BLOCK
  8
0
  2
*D9
 70
     1
 10
0.0
 20
0.0
 30
0.0
  0
LINE
  5
2675
  8
0
  6
BYBLOCK
 62
     3
 10
-2.346022995511131
 20
-0.2695447355704038
 30
0.0
 11
-10.0375513796885
 21
-3.475883546585685
 31
0.0
  0
LINE
  5
2676
  8
0
  6
BYBLOCK
 62
     3
 10
-7.197986768712878
 20
-2.29216481556128
 30
0.0
 11
-7.197986768712878
 21
-2.29216481556128
 31
0.0
  0
SOLID
  5
2677
  8
0
  6
BYBLOCK
 62
     3
 10
-0.9615057488777847
 20
0.307613816107398
 30
0.0
 11
-2.442216087457451
 21
-0.0387918611314666
 31
0.0
 12
-2.249829903564811
 22
-0.500297610009341
 32
0.0
 13
-2.249829903564811
 23
-0.500297610009341
 33
0.0
  0
TEXT
  5
2678
  8
0
  6
CONTINUOUS
 62
     3
 10
-10.08955663200934
 20
-3.400055871526997
 30
0.0
 40
2.0
  1
R0.5
 50
22.62960930585329
  7
돋움
  0
POINT
  5
2679
  8
DEFPOINTS
  6
BYBLOCK
 62
     3
 10
-0.5000000000000034
 20
0.4999999999999984
 30
0.0
  0
POINT
  5
267A
  8
DEFPOINTS
  6
BYBLOCK
 62
     3
 10
-0.9615057488777847
 20
0.307613816107398
 30
0.0
  0
ENDBLK
  8
0
  0
BLOCK
  8
0
  2
*X10
 70
     1
 10
0.0
 20
0.0
 30
0.0
  0
TEXT
  5
26B7
  8
0
  6
CONTINUOUS
 62
     3
 10
-1.949728545590945
 20
52.74638438680276
 30
0.0
 40
2.0
  1
\U+2205
  7
돋움
  0
TEXT
  5
26B8
  8
0
  6
CONTINUOUS
 62
     3
 10
-0.1402047360671352
 20
52.74638438680276
 30
0.0
 40
2.0
  1
4
  7
돋움
  0
ENDBLK
  8
0
  0
BLOCK
  8
0
  2
*X11
 70
     1
 10
0.0
 20
0.0
 30
0.0
  0
TEXT
  5
26BA
  8
0
  6
CONTINUOUS
 62
     3
 10
-5.812243788819877
 20
-5.094804539705278
 30
0.0
 40
2.0
  1
\U+2205
  7
돋움
  0
TEXT
  5
26BB
  8
0
  6
CONTINUOUS
 62
     3
 10
-4.002719979296068
 20
-5.094804539705278
 30
0.0
 40
2.0
  1
2
  7
돋움
  0
ENDBLK
  8
0
  0
ENDSEC
  0
SECTION
  2
ENTITIES
  0
LINE
  5
394
  8
0
 10
-1.5
 20
50.0
 30
0.0
 11
1.5
 21
50.0
 31
0.0
  0
LINE
  5
398
  8
0
 10
-2.0
 20
9.732050807568875
 30
0.0
 11
-2.0
 21
49.5
 31
0.0
  0
LINE
  5
399
  8
0
 10
2.0
 20
9.732050807568866
 30
0.0
 11
2.0
 21
49.5
 31
0.0
  0
LINE
  5
39A
  8
0
 10
1.000000000000002
 20
6.000000000000002
 30
0.0
 11
2.0
 21
9.732050807568866
 31
0.0
  0
LINE
  5
39B
  8
0
 10
-1.000000000000002
 20
6.000000000000002
 30
0.0
 11
-2.0
 21
9.732050807568875
 31
0.0
  0
LINE
  5
39C
  8
0
 10
-2.0
 20
49.5
 30
0.0
 11
2.0
 21
49.5
 31
0.0
  0
LINE
  5
39D
  8
0
 10
-2.0
 20
49.5
 30
0.0
 11
-1.5
 21
50.0
 31
0.0
  0
LINE
  5
39E
  8
0
 10
2.0
 20
49.5
 30
0.0
 11
1.5
 21
50.0
 31
0.0
  0
DIMENSION
  5
39F
  8
0
  2
*D1
 10
2.0
 20
52.6020365607158
 30
0.0
 11
-0.3306809265433256
 21
52.6020365607158
 31
0.0
 70
   160
  1
%%c<>
 13
-2.0
 23
49.5
 33
0.0
 14
2.0
 24
49.5
 34
0.0
  0
DIMENSION
  5
89F
  8
0
  2
*D2
 10
12.98943181212164
 20
0.0000000000000064
 30
0.0
 11
11.89535572516512
 21
25.0
 31
0.0
 70
    32
 13
1.5
 23
50.0
 33
0.0
 14
1.0
 24
0.0000000000000071
 34
0.0
 50
90.0
  0
LINE
  5
1836
  8
0
 10
-1.000000000000002
 20
0.4999999999999967
 30
0.0
 11
-1.000000000000002
 21
6.000000000000002
 31
0.0
  0
LINE
  5
183B
  8
0
 10
1.000000000000002
 20
0.5000000000000104
 30
0.0
 11
1.000000000000002
 21
6.000000000000002
 31
0.0
  0
LINE
  5
1932
  8
0
 10
-0.5000000000000018
 20
0.0000000000000001
 30
0.0
 11
0.5000000000000018
 21
0.000000000000007
 31
0.0
  0
LINE
  5
1943
  8
0
  6
BYBLOCK
 62
     3
 10
0.0499999999999989
 20
0.0
 30
0.0
 11
0.0499999999999989
 21
0.0
 31
0.0
  0
LINE
  5
1944
  8
0
  6
BYBLOCK
 62
     3
 10
0.0499999999999989
 20
0.0
 30
0.0
 11
0.0499999999999989
 21
0.0
 31
0.0
  0
DIMENSION
  5
22BC
  8
0
  2
*D3
 10
1.0
 20
-5.239152365792235
 30
0.0
 11
-3.250000000000002
 21
-5.239152365792235
 31
0.0
 70
   160
  1
%%C<>
 13
-1.000000000000002
 23
-0.0000000000000033
 33
0.0
 14
1.0
 24
0.0000000000000071
 34
0.0
  0
DIMENSION
  5
2395
  8
0
  2
*D4
 10
9.80084611810532
 20
6.000000000000001
 30
0.0
 11
8.705411335496624
 21
3.000000000000004
 31
0.0
 70
    32
 13
1.0
 23
0.0000000000000071
 33
0.0
 14
1.000000000000002
 24
6.000000000000002
 34
0.0
 50
90.0
  0
ARC
  5
262B
  8
0
 10
-0.5000000000000034
 20
0.4999999999999984
 30
0.0
 40
0.5
 50
180.0000000000002
 51
270.0000000000002
  0
ARC
  5
262C
  8
0
 10
0.5
 20
0.5000000000000087
 30
0.0
 40
0.5
 50
270.0000000000002
 51
0.0000000000002036
  0
DIMENSION
  5
2661
  8
0
  2
*D9
 10
-0.5000000000000034
 20
0.4999999999999984
 30
0.0
 11
-7.197986768712878
 21
-2.29216481556128
 31
0.0
 70
   164
 15
-0.9615057488777847
 25
0.307613816107398
 35
0.0
 40
0.0
  0
LINE
  5
266D
  8
0
  6
BYBLOCK
 62
     3
 10
-0.5000000000000034
 20
0.4999999999999984
 30
0.0
 11
-0.5000000000000034
 21
0.4999999999999984
 31
0.0
  0
LINE
  5
266E
  8
0
  6
BYBLOCK
 62
     3
 10
-0.5000000000000034
 20
0.4999999999999984
 30
0.0
 11
-0.5000000000000034
 21
0.4999999999999984
 31
0.0
  0
ENDSEC
  0
EOF
