  0
SECTION
  2
HEADER
  9
$ACADVER
  1
AC1006
  9
$DWGCODEPAGE
  3
ansi_949
  9
$INSBASE
 10
0.0
 20
0.0
 30
0.0
  9
$EXTMIN
 10
-11.10500575346684
 20
-5.739152365792235
  9
$EXTMAX
 10
14.99697092851574
 20
64.80073221288971
  9
$LIMMIN
 10
0.0
 20
0.0
  9
$LIMMAX
 10
12.0
 20
9.0
  9
$ORTHOMODE
 70
     1
  9
$REGENMODE
 70
     1
  9
$FILLMODE
 70
     1
  9
$QTEXTMODE
 70
     0
  9
$MIRRTEXT
 70
     0
  9
$DRAGMODE
 70
     2
  9
$LTSCALE
 40
1.0
  9
$OSMODE
 70
    37
  9
$ATTMODE
 70
     1
  9
$TEXTSIZE
 40
0.2
  9
$TRACEWID
 40
0.05
  9
$TEXTSTYLE
  7
STANDARD
  9
$CLAYER
  8
0
  9
$CELTYPE
  6
BYLAYER
  9
$CECOLOR
 62
   256
  9
$DIMSCALE
 40
1.0
  9
$DIMASZ
 40
1.5
  9
$DIMEXO
 40
0.5
  9
$DIMDLI
 40
2.0
  9
$DIMRND
 40
0.0
  9
$DIMDLE
 40
0.0
  9
$DIMEXE
 40
0.5
  9
$DIMTP
 40
0.0
  9
$DIMTM
 40
0.0
  9
$DIMTXT
 40
2.0
  9
$DIMCEN
 40
0.0
  9
$DIMTSZ
 40
0.0
  9
$DIMTOL
 70
     0
  9
$DIMLIM
 70
     0
  9
$DIMTIH
 70
     0
  9
$DIMTOH
 70
     0
  9
$DIMSE1
 70
     0
  9
$DIMSE2
 70
     0
  9
$DIMTAD
 70
     1
  9
$DIMZIN
 70
     0
  9
$DIMBLK
  1

  9
$DIMASO
 70
     1
  9
$DIMSHO
 70
     1
  9
$DIMPOST
  1

  9
$DIMAPOST
  1

  9
$DIMALT
 70
     0
  9
$DIMALTD
 70
     2
  9
$DIMALTF
 40
25.4
  9
$DIMLFAC
 40
1.0
  9
$DIMTOFL
 70
     0
  9
$DIMTVP
 40
0.0
  9
$DIMTIX
 70
     0
  9
$DIMSOXD
 70
     0
  9
$DIMSAH
 70
     0
  9
$DIMBLK1
  1

  9
$DIMBLK2
  1

  9
$LUNITS
 70
     2
  9
$LUPREC
 70
     4
  9
$SKETCHINC
 40
0.1
  9
$FILLETRAD
 40
0.3
  9
$AUNITS
 70
     0
  9
$AUPREC
 70
     0
  9
$MENU
  1
.
  9
$ELEVATION
 40
0.0
  9
$THICKNESS
 40
0.0
  9
$LIMCHECK
 70
     0
  9
$CHAMFERA
 40
0.0
  9
$CHAMFERB
 40
0.0
  9
$SKPOLY
 70
     0
  9
$TDCREATE
 40
2453353.842125822
  9
$TDUPDATE
 40
2459506.199023067
  9
$TDINDWG
 40
0.0833773727
  9
$TDUSRTIMER
 40
0.0833426042
  9
$USRTIMER
 70
     1
  9
$ANGBASE
 50
0.0
  9
$ANGDIR
 70
     0
  9
$PDMODE
 70
     0
  9
$PDSIZE
 40
0.0
  9
$PLINEWID
 40
0.0
  9
$COORDS
 70
     1
  9
$SPLFRAME
 70
     0
  9
$SPLINETYPE
 70
     6
  9
$SPLINESEGS
 70
     8
  9
$ATTDIA
 70
     0
  9
$ATTREQ
 70
     1
  9
$HANDLING
 70
     1
  9
$HANDSEED
  5
2BC5
  9
$SURFTAB1
 70
     6
  9
$SURFTAB2
 70
     6
  9
$SURFTYPE
 70
     6
  9
$SURFU
 70
     6
  9
$SURFV
 70
     6
  9
$UCSNAME
  2

  9
$UCSORG
 10
0.0
 20
0.0
 30
0.0
  9
$UCSXDIR
 10
1.0
 20
0.0
 30
0.0
  9
$UCSYDIR
 10
0.0
 20
1.0
 30
0.0
  9
$USERI1
 70
     0
  9
$USERI2
 70
     0
  9
$USERI3
 70
     0
  9
$USERI4
 70
     0
  9
$USERI5
 70
     0
  9
$USERR1
 40
0.0
  9
$USERR2
 40
0.0
  9
$USERR3
 40
0.0
  9
$USERR4
 40
0.0
  9
$USERR5
 40
0.0
  9
$WORLDVIEW
 70
     1
  0
ENDSEC
  0
SECTION
  2
TABLES
  0
TABLE
  2
VPORT
 70
     1
  0
VPORT
  2
*ACTIVE
 70
     0
 10
0.0
 20
0.0
 11
1.0
 21
1.0
 12
1.94598258752445
 22
29.53078992354874
 13
0.0
 23
0.0
 14
0.5
 24
0.5
 15
0.5
 25
0.5
 16
0.0
 26
0.0
 36
1.0
 17
0.0
 27
0.0
 37
0.0
 40
71.95068227025558
 41
1.701534170153416
 42
50.0
 43
0.0
 44
0.0
 50
0.0
 51
0.0
 71
    16
 72
  1000
 73
     1
 74
     3
 75
     0
 76
     0
 77
     0
 78
     0
  0
ENDTAB
  0
TABLE
  2
LTYPE
 70
     1
  0
LTYPE
  2
CONTINUOUS
 70
     0
  3
Solid line
 72
    65
 73
     0
 40
0.0
  0
ENDTAB
  0
TABLE
  2
LAYER
 70
     2
  0
LAYER
  2
0
 70
     0
 62
     7
  6
CONTINUOUS
  0
LAYER
  2
DEFPOINTS
 70
     0
 62
     7
  6
CONTINUOUS
  0
ENDTAB
  0
TABLE
  2
STYLE
 70
     2
  0
STYLE
  2
STANDARD
 70
     0
 40
0.0
 41
1.0
 50
0.0
 71
     0
 42
0.2
  3
IC-txt.shx
  4

  0
STYLE
  2
돋움
 70
     0
 40
0.0
 41
1.0
 50
0.0
 71
     0
 42
0.2
  3
Dotum.ttf
  4

  0
ENDTAB
  0
TABLE
  2
VIEW
 70
     0
  0
ENDTAB
  0
TABLE
  2
UCS
 70
     0
  0
ENDTAB
  0
ENDSEC
  0
SECTION
  2
BLOCKS
  0
BLOCK
  8
0
  2
*D1
 70
     1
 10
0.0
 20
0.0
 30
0.0
  0
POINT
  5
2B22
  8
DEFPOINTS
  6
BYBLOCK
 62
     3
 10
-3.0
 20
59.5
 30
0.0
  0
POINT
  5
2B23
  8
DEFPOINTS
  6
BYBLOCK
 62
     3
 10
3.0
 20
59.5
 30
0.0
  0
LINE
  5
2B24
  8
0
  6
BYBLOCK
 62
     3
 10
-3.0
 20
60.0
 30
0.0
 11
-3.0
 21
63.1020365607158
 31
0.0
  0
LINE
  5
2B25
  8
0
  6
BYBLOCK
 62
     3
 10
3.0
 20
60.0
 30
0.0
 11
3.0
 21
63.1020365607158
 31
0.0
  0
LINE
  5
2B26
  8
0
  6
BYBLOCK
 62
     3
 10
-3.0
 20
62.6020365607158
 30
0.0
 11
3.0
 21
62.6020365607158
 31
0.0
  0
SOLID
  5
2B27
  8
0
  6
BYBLOCK
 62
     3
 10
-3.0
 20
62.6020365607158
 30
0.0
 11
-1.5
 21
62.35203656071575
 31
0.0
 12
-1.5
 22
62.85203656071585
 32
0.0
 13
-1.5
 23
62.85203656071585
 33
0.0
  0
SOLID
  5
2B28
  8
0
  6
BYBLOCK
 62
     3
 10
3.0
 20
62.6020365607158
 30
0.0
 11
1.5
 21
62.35203656071575
 31
0.0
 12
1.5
 22
62.85203656071585
 32
0.0
 13
1.5
 23
62.85203656071585
 33
0.0
  0
INSERT
  5
2B29
  8
0
  6
BYBLOCK
 62
     3
  2
*X9
 10
0.0
 20
0.0
 30
0.0
  0
ENDBLK
  8
0
  0
BLOCK
  8
0
  2
*D2
 70
     1
 10
0.0
 20
0.0
 30
0.0
  0
POINT
  5
2B32
  8
DEFPOINTS
  6
BYBLOCK
 62
     3
 10
2.5
 20
60.0
 30
0.0
  0
POINT
  5
2B33
  8
DEFPOINTS
  6
BYBLOCK
 62
     3
 10
2.250000000000002
 20
0.0000000000000122
 30
0.0
  0
LINE
  5
2B34
  8
0
  6
BYBLOCK
 62
     3
 10
3.0
 20
60.0
 30
0.0
 11
14.99697092851574
 21
60.0
 31
0.0
  0
LINE
  5
2B35
  8
0
  6
BYBLOCK
 62
     3
 10
2.750000000000002
 20
0.0000000000000142
 30
0.0
 11
14.99697092851574
 21
0.0000000000000142
 31
0.0
  0
LINE
  5
2B36
  8
0
  6
BYBLOCK
 62
     3
 10
14.49697092851574
 20
60.0
 30
0.0
 11
14.49697092851574
 21
0.0000000000000142
 31
0.0
  0
SOLID
  5
2B37
  8
0
  6
BYBLOCK
 62
     3
 10
14.49697092851574
 20
60.0
 30
0.0
 11
14.24697092851569
 21
58.5
 31
0.0
 12
14.74697092851579
 22
58.5
 32
0.0
 13
14.74697092851579
 23
58.5
 33
0.0
  0
SOLID
  5
2B38
  8
0
  6
BYBLOCK
 62
     3
 10
14.49697092851574
 20
0.0000000000000142
 30
0.0
 11
14.24697092851569
 21
1.500000000000014
 31
0.0
 12
14.74697092851579
 22
1.500000000000014
 32
0.0
 13
14.74697092851579
 23
1.500000000000014
 33
0.0
  0
TEXT
  5
2B39
  8
0
  6
CONTINUOUS
 62
     3
 10
14.40153614590705
 20
28.38095238095239
 30
0.0
 40
2.0
  1
60
 50
90.0
  7
돋움
  0
ENDBLK
  8
0
  0
BLOCK
  8
0
  2
*D3
 70
     1
 10
0.0
 20
0.0
 30
0.0
  0
POINT
  5
27F7
  8
DEFPOINTS
  6
BYBLOCK
 62
     3
 10
-1.500000000000002
 20
-0.0000000000000022
 30
0.0
  0
POINT
  5
27F8
  8
DEFPOINTS
  6
BYBLOCK
 62
     3
 10
1.500000000000002
 20
0.0000000000000093
 30
0.0
  0
LINE
  5
27F9
  8
0
  6
BYBLOCK
 62
     3
 10
-1.500000000000002
 20
-0.5000000000000022
 30
0.0
 11
-1.500000000000002
 21
-5.739152365792235
 31
0.0
  0
LINE
  5
27FA
  8
0
  6
BYBLOCK
 62
     3
 10
1.500000000000002
 20
-0.4999999999999907
 30
0.0
 11
1.500000000000002
 21
-5.739152365792235
 31
0.0
  0
LINE
  5
27FB
  8
0
  6
BYBLOCK
 62
     3
 10
3.000000000000002
 20
-5.239152365792235
 30
0.0
 11
4.500000000000002
 21
-5.239152365792235
 31
0.0
  0
SOLID
  5
27FC
  8
0
  6
BYBLOCK
 62
     3
 10
-1.500000000000002
 20
-5.239152365792235
 30
0.0
 11
-3.000000000000002
 21
-5.489152365792284
 31
0.0
 12
-3.000000000000002
 22
-4.989152365792185
 32
0.0
 13
-3.000000000000002
 23
-4.989152365792185
 33
0.0
  0
LINE
  5
27FD
  8
0
  6
BYBLOCK
 62
     3
 10
-3.000000000000002
 20
-5.239152365792235
 30
0.0
 11
-8.65146739130435
 21
-5.239152365792235
 31
0.0
  0
SOLID
  5
27FE
  8
0
  6
BYBLOCK
 62
     3
 10
1.500000000000002
 20
-5.239152365792235
 30
0.0
 11
3.000000000000002
 21
-5.489152365792284
 31
0.0
 12
3.000000000000002
 22
-4.989152365792185
 32
0.0
 13
3.000000000000002
 23
-4.989152365792185
 33
0.0
  0
INSERT
  5
27FF
  8
0
  6
BYBLOCK
 62
     3
  2
*X10
 10
0.0
 20
0.0
 30
0.0
  0
ENDBLK
  8
0
  0
BLOCK
  8
0
  2
*D6
 70
     1
 10
0.0
 20
0.0
 30
0.0
  0
POINT
  5
2B12
  8
DEFPOINTS
  6
BYBLOCK
 62
     3
 10
1.500000000000002
 20
10.0
 30
0.0
  0
POINT
  5
2B13
  8
DEFPOINTS
  6
BYBLOCK
 62
     3
 10
1.400000000000002
 20
0.0000000000000089
 30
0.0
  0
LINE
  5
2B14
  8
0
  6
BYBLOCK
 62
     3
 10
2.000000000000002
 20
10.0
 30
0.0
 11
10.33370123100572
 21
10.0
 31
0.0
  0
LINE
  5
2B15
  8
0
  6
BYBLOCK
 62
     3
 10
1.900000000000002
 20
0.0000000000000089
 30
0.0
 11
10.33370123100572
 21
0.0000000000000089
 31
0.0
  0
LINE
  5
2B16
  8
0
  6
BYBLOCK
 62
     3
 10
9.833701231005719
 20
10.0
 30
0.0
 11
9.833701231005719
 21
0.0000000000000089
 31
0.0
  0
SOLID
  5
2B17
  8
0
  6
BYBLOCK
 62
     3
 10
9.833701231005719
 20
10.0
 30
0.0
 11
9.58370123100567
 21
8.5
 31
0.0
 12
10.08370123100577
 22
8.5
 32
0.0
 13
10.08370123100577
 23
8.5
 33
0.0
  0
SOLID
  5
2B18
  8
0
  6
BYBLOCK
 62
     3
 10
9.833701231005719
 20
0.0000000000000089
 30
0.0
 11
9.58370123100567
 21
1.500000000000009
 31
0.0
 12
10.08370123100577
 22
1.500000000000009
 32
0.0
 13
10.08370123100577
 23
1.500000000000009
 33
0.0
  0
TEXT
  5
2B19
  8
0
  6
CONTINUOUS
 62
     3
 10
9.739625144049198
 20
3.571428571428576
 30
0.0
 40
2.0
  1
10
 50
90.0
  7
돋움
  0
ENDBLK
  8
0
  0
BLOCK
  8
0
  2
*D8
 70
     1
 10
0.0
 20
0.0
 30
0.0
  0
LINE
  5
2B7C
  8
0
  6
BYBLOCK
 62
     3
 10
-2.961375243249109
 20
-0.0708871155340271
 30
0.0
 11
-11.10500575346684
 21
-1.785665179711903
 31
0.0
  0
LINE
  5
2B7D
  8
0
  6
BYBLOCK
 62
     3
 10
-8.105243314737702
 20
-1.15401485849173
 30
0.0
 11
-8.105243314737702
 21
-1.15401485849173
 31
0.0
  0
SOLID
  5
2B7E
  8
0
  6
BYBLOCK
 62
     3
 10
-1.49356254054152
 20
0.2381854807443274
 30
0.0
 11
-3.012887342628845
 21
0.1737483349172867
 31
0.0
 12
-2.909863143869373
 22
-0.3155225659853408
 32
0.0
 13
-2.909863143869373
 23
-0.3155225659853408
 33
0.0
  0
TEXT
  5
2B7F
  8
0
  6
CONTINUOUS
 62
     3
 10
-11.15260753324435
 20
-1.703714945792544
 30
0.0
 40
2.0
  1
R0.3
 50
11.89087812341516
  7
돋움
  0
POINT
  5
2B80
  8
DEFPOINTS
  6
BYBLOCK
 62
     3
 10
-1.200000000000002
 20
0.2999999999999984
 30
0.0
  0
POINT
  5
2B81
  8
DEFPOINTS
  6
BYBLOCK
 62
     3
 10
-1.49356254054152
 20
0.2381854807443274
 30
0.0
  0
ENDBLK
  8
0
  0
BLOCK
  8
0
  2
*X9
 70
     1
 10
0.0
 20
0.0
 30
0.0
  0
TEXT
  5
2BBC
  8
0
  6
CONTINUOUS
 62
     3
 10
-1.854490450352849
 20
62.74638438680276
 30
0.0
 40
2.0
  1
\U+2205
  7
돋움
  0
TEXT
  5
2BBD
  8
0
  6
CONTINUOUS
 62
     3
 10
-0.0449666408290401
 20
62.74638438680276
 30
0.0
 40
2.0
  1
6
  7
돋움
  0
ENDBLK
  8
0
  0
BLOCK
  8
0
  2
*X10
 70
     1
 10
0.0
 20
0.0
 30
0.0
  0
TEXT
  5
2BBF
  8
0
  6
CONTINUOUS
 62
     3
 10
-8.486156832298137
 20
-5.094804539705278
 30
0.0
 40
2.0
  1
\U+2205
  7
돋움
  0
TEXT
  5
2BC0
  8
0
  6
CONTINUOUS
 62
     3
 10
-6.676633022774328
 20
-5.094804539705278
 30
0.0
 40
2.0
  1
3
  7
돋움
  0
ENDBLK
  8
0
  0
ENDSEC
  0
SECTION
  2
ENTITIES
  0
LINE
  5
394
  8
0
 10
-2.5
 20
60.0
 30
0.0
 11
2.5
 21
60.0
 31
0.0
  0
LINE
  5
398
  8
0
 10
-3.0
 20
15.59807621135332
 30
0.0
 11
-3.0
 21
59.5
 31
0.0
  0
LINE
  5
399
  8
0
 10
3.0
 20
15.59807621135331
 30
0.0
 11
3.0
 21
59.5
 31
0.0
  0
LINE
  5
39A
  8
0
 10
1.500000000000002
 20
10.0
 30
0.0
 11
3.0
 21
15.59807621135331
 31
0.0
  0
LINE
  5
39B
  8
0
 10
-1.500000000000002
 20
10.0
 30
0.0
 11
-3.0
 21
15.59807621135332
 31
0.0
  0
LINE
  5
39C
  8
0
 10
-3.0
 20
59.5
 30
0.0
 11
3.0
 21
59.5
 31
0.0
  0
LINE
  5
39D
  8
0
 10
-3.0
 20
59.5
 30
0.0
 11
-2.5
 21
60.0
 31
0.0
  0
LINE
  5
39E
  8
0
 10
3.0
 20
59.5
 30
0.0
 11
2.5
 21
60.0
 31
0.0
  0
DIMENSION
  5
39F
  8
0
  2
*D1
 10
3.0
 20
62.6020365607158
 30
0.0
 11
-0.3306809265433256
 21
62.6020365607158
 31
0.0
 70
   160
  1
%%c<>
 13
-3.0
 23
59.5
 33
0.0
 14
3.0
 24
59.5
 34
0.0
  0
DIMENSION
  5
89F
  8
0
  2
*D2
 10
14.49697092851574
 20
0.0000000000000114
 30
0.0
 11
13.40153614590705
 21
30.00000000000001
 31
0.0
 70
    32
 13
2.5
 23
60.0
 33
0.0
 14
2.250000000000002
 24
0.0000000000000122
 34
0.0
 50
90.0
  0
LINE
  5
1836
  8
0
 10
-1.500000000000002
 20
0.2999999999999979
 30
0.0
 11
-1.500000000000002
 21
10.0
 31
0.0
  0
LINE
  5
183B
  8
0
 10
1.500000000000002
 20
0.3000000000000093
 30
0.0
 11
1.500000000000002
 21
10.0
 31
0.0
  0
LINE
  5
1932
  8
0
 10
-1.200000000000002
 20
-0.000000000000001
 30
0.0
 11
1.200000000000002
 21
0.0000000000000081
 31
0.0
  0
DIMENSION
  5
22BC
  8
0
  2
*D3
 10
1.500000000000002
 20
-5.239152365792235
 30
0.0
 11
-6.914728260869566
 21
-5.239152365792235
 31
0.0
 70
   160
  1
%%C<>
 13
-1.500000000000002
 23
-0.0000000000000022
 33
0.0
 14
1.500000000000002
 24
0.0000000000000093
 34
0.0
  0
DIMENSION
  5
2AA2
  8
0
  2
*D6
 10
9.833701231005719
 20
0.0000000000000084
 30
0.0
 11
8.739625144049198
 21
5.000000000000004
 31
0.0
 70
    32
 13
1.500000000000002
 23
10.0
 33
0.0
 14
1.400000000000002
 24
0.0000000000000089
 34
0.0
 50
90.0
  0
ARC
  5
2B3A
  8
0
 10
-1.200000000000002
 20
0.2999999999999984
 30
0.0
 40
0.3
 50
180.0000000000001
 51
270.0000000000002
  0
ARC
  5
2B3B
  8
0
 10
1.200000000000001
 20
0.3000000000000088
 30
0.0
 40
0.3
 50
270.0000000000001
 51
0.0000000000001018
  0
DIMENSION
  5
2B68
  8
0
  2
*D8
 10
-1.200000000000002
 20
0.2999999999999984
 30
0.0
 11
-8.105243314737702
 21
-1.15401485849173
 31
0.0
 70
   164
 15
-1.49356254054152
 25
0.2381854807443274
 35
0.0
 40
0.0
  0
LINE
  5
2B74
  8
0
  6
BYBLOCK
 62
     3
 10
-1.200000000000002
 20
0.2999999999999984
 30
0.0
 11
-1.200000000000002
 21
0.2999999999999984
 31
0.0
  0
LINE
  5
2B75
  8
0
  6
BYBLOCK
 62
     3
 10
-1.200000000000002
 20
0.2999999999999984
 30
0.0
 11
-1.200000000000002
 21
0.2999999999999984
 31
0.0
  0
ENDSEC
  0
EOF
