  0
SECTION
  2
HEADER
  9
$ACADVER
  1
AC1006
  9
$DWGCODEPAGE
  3
ansi_949
  9
$INSBASE
 10
0.0
 20
0.0
 30
0.0
  9
$EXTMIN
 10
-11.9209671891146
 20
-5.739152365792235
  9
$EXTMAX
 10
14.8196194236415
 20
64.80073221288971
  9
$LIMMIN
 10
0.0
 20
0.0
  9
$LIMMAX
 10
12.0
 20
9.0
  9
$ORTHOMODE
 70
     1
  9
$REGENMODE
 70
     1
  9
$FILLMODE
 70
     1
  9
$QTEXTMODE
 70
     0
  9
$MIRRTEXT
 70
     0
  9
$DRAGMODE
 70
     2
  9
$LTSCALE
 40
1.0
  9
$OSMODE
 70
    37
  9
$ATTMODE
 70
     1
  9
$TEXTSIZE
 40
0.2
  9
$TRACEWID
 40
0.05
  9
$TEXTSTYLE
  7
STANDARD
  9
$CLAYER
  8
0
  9
$CELTYPE
  6
BYLAYER
  9
$CECOLOR
 62
   256
  9
$DIMSCALE
 40
1.0
  9
$DIMASZ
 40
1.5
  9
$DIMEXO
 40
0.5
  9
$DIMDLI
 40
2.0
  9
$DIMRND
 40
0.0
  9
$DIMDLE
 40
0.0
  9
$DIMEXE
 40
0.5
  9
$DIMTP
 40
0.0
  9
$DIMTM
 40
0.0
  9
$DIMTXT
 40
2.0
  9
$DIMCEN
 40
0.0
  9
$DIMTSZ
 40
0.0
  9
$DIMTOL
 70
     0
  9
$DIMLIM
 70
     0
  9
$DIMTIH
 70
     0
  9
$DIMTOH
 70
     0
  9
$DIMSE1
 70
     0
  9
$DIMSE2
 70
     0
  9
$DIMTAD
 70
     1
  9
$DIMZIN
 70
     0
  9
$DIMBLK
  1

  9
$DIMASO
 70
     1
  9
$DIMSHO
 70
     1
  9
$DIMPOST
  1

  9
$DIMAPOST
  1

  9
$DIMALT
 70
     0
  9
$DIMALTD
 70
     2
  9
$DIMALTF
 40
25.4
  9
$DIMLFAC
 40
1.0
  9
$DIMTOFL
 70
     0
  9
$DIMTVP
 40
0.0
  9
$DIMTIX
 70
     0
  9
$DIMSOXD
 70
     0
  9
$DIMSAH
 70
     0
  9
$DIMBLK1
  1

  9
$DIMBLK2
  1

  9
$LUNITS
 70
     2
  9
$LUPREC
 70
     4
  9
$SKETCHINC
 40
0.1
  9
$FILLETRAD
 40
0.2
  9
$AUNITS
 70
     0
  9
$AUPREC
 70
     0
  9
$MENU
  1
.
  9
$ELEVATION
 40
0.0
  9
$THICKNESS
 40
0.0
  9
$LIMCHECK
 70
     0
  9
$CHAMFERA
 40
0.0
  9
$CHAMFERB
 40
0.0
  9
$SKPOLY
 70
     0
  9
$TDCREATE
 40
2453353.842125822
  9
$TDUPDATE
 40
2459506.199483148
  9
$TDINDWG
 40
0.088851875
  9
$TDUSRTIMER
 40
0.0888170949
  9
$USRTIMER
 70
     1
  9
$ANGBASE
 50
0.0
  9
$ANGDIR
 70
     0
  9
$PDMODE
 70
     0
  9
$PDSIZE
 40
0.0
  9
$PLINEWID
 40
0.0
  9
$COORDS
 70
     1
  9
$SPLFRAME
 70
     0
  9
$SPLINETYPE
 70
     6
  9
$SPLINESEGS
 70
     8
  9
$ATTDIA
 70
     0
  9
$ATTREQ
 70
     1
  9
$HANDLING
 70
     1
  9
$HANDSEED
  5
30B4
  9
$SURFTAB1
 70
     6
  9
$SURFTAB2
 70
     6
  9
$SURFTYPE
 70
     6
  9
$SURFU
 70
     6
  9
$SURFV
 70
     6
  9
$UCSNAME
  2

  9
$UCSORG
 10
0.0
 20
0.0
 30
0.0
  9
$UCSXDIR
 10
1.0
 20
0.0
 30
0.0
  9
$UCSYDIR
 10
0.0
 20
1.0
 30
0.0
  9
$USERI1
 70
     0
  9
$USERI2
 70
     0
  9
$USERI3
 70
     0
  9
$USERI4
 70
     0
  9
$USERI5
 70
     0
  9
$USERR1
 40
0.0
  9
$USERR2
 40
0.0
  9
$USERR3
 40
0.0
  9
$USERR4
 40
0.0
  9
$USERR5
 40
0.0
  9
$WORLDVIEW
 70
     1
  0
ENDSEC
  0
SECTION
  2
TABLES
  0
TABLE
  2
VPORT
 70
     1
  0
VPORT
  2
*ACTIVE
 70
     0
 10
0.0
 20
0.0
 11
1.0
 21
1.0
 12
1.449326117263447
 22
29.53078992354874
 13
0.0
 23
0.0
 14
0.5
 24
0.5
 15
0.5
 25
0.5
 16
0.0
 26
0.0
 36
1.0
 17
0.0
 27
0.0
 37
0.0
 40
71.95068227025558
 41
1.701534170153416
 42
50.0
 43
0.0
 44
0.0
 50
0.0
 51
0.0
 71
    16
 72
  1000
 73
     1
 74
     3
 75
     0
 76
     0
 77
     0
 78
     0
  0
ENDTAB
  0
TABLE
  2
LTYPE
 70
     1
  0
LTYPE
  2
CONTINUOUS
 70
     0
  3
Solid line
 72
    65
 73
     0
 40
0.0
  0
ENDTAB
  0
TABLE
  2
LAYER
 70
     2
  0
LAYER
  2
0
 70
     0
 62
     7
  6
CONTINUOUS
  0
LAYER
  2
DEFPOINTS
 70
     0
 62
     7
  6
CONTINUOUS
  0
ENDTAB
  0
TABLE
  2
STYLE
 70
     2
  0
STYLE
  2
STANDARD
 70
     0
 40
0.0
 41
1.0
 50
0.0
 71
     0
 42
0.2
  3
IC-txt.shx
  4

  0
STYLE
  2
돋움
 70
     0
 40
0.0
 41
1.0
 50
0.0
 71
     0
 42
0.2
  3
Dotum.ttf
  4

  0
ENDTAB
  0
TABLE
  2
VIEW
 70
     0
  0
ENDTAB
  0
TABLE
  2
UCS
 70
     0
  0
ENDTAB
  0
ENDSEC
  0
SECTION
  2
BLOCKS
  0
BLOCK
  8
0
  2
*D1
 70
     1
 10
0.0
 20
0.0
 30
0.0
  0
POINT
  5
304B
  8
DEFPOINTS
  6
BYBLOCK
 62
     3
 10
-3.0
 20
59.5
 30
0.0
  0
POINT
  5
304C
  8
DEFPOINTS
  6
BYBLOCK
 62
     3
 10
3.0
 20
59.5
 30
0.0
  0
LINE
  5
304D
  8
0
  6
BYBLOCK
 62
     3
 10
-3.0
 20
60.0
 30
0.0
 11
-3.0
 21
63.1020365607158
 31
0.0
  0
LINE
  5
304E
  8
0
  6
BYBLOCK
 62
     3
 10
3.0
 20
60.0
 30
0.0
 11
3.0
 21
63.1020365607158
 31
0.0
  0
LINE
  5
304F
  8
0
  6
BYBLOCK
 62
     3
 10
-3.0
 20
62.6020365607158
 30
0.0
 11
3.0
 21
62.6020365607158
 31
0.0
  0
SOLID
  5
3050
  8
0
  6
BYBLOCK
 62
     3
 10
-3.0
 20
62.6020365607158
 30
0.0
 11
-1.5
 21
62.35203656071575
 31
0.0
 12
-1.5
 22
62.85203656071585
 32
0.0
 13
-1.5
 23
62.85203656071585
 33
0.0
  0
SOLID
  5
3051
  8
0
  6
BYBLOCK
 62
     3
 10
3.0
 20
62.6020365607158
 30
0.0
 11
1.5
 21
62.35203656071575
 31
0.0
 12
1.5
 22
62.85203656071585
 32
0.0
 13
1.5
 23
62.85203656071585
 33
0.0
  0
INSERT
  5
3052
  8
0
  6
BYBLOCK
 62
     3
  2
*X8
 10
0.0
 20
0.0
 30
0.0
  0
ENDBLK
  8
0
  0
BLOCK
  8
0
  2
*D2
 70
     1
 10
0.0
 20
0.0
 30
0.0
  0
POINT
  5
305B
  8
DEFPOINTS
  6
BYBLOCK
 62
     3
 10
2.5
 20
60.0
 30
0.0
  0
POINT
  5
305C
  8
DEFPOINTS
  6
BYBLOCK
 62
     3
 10
2.025886473839717
 20
0.0000000000000071
 30
0.0
  0
LINE
  5
305D
  8
0
  6
BYBLOCK
 62
     3
 10
3.0
 20
60.0
 30
0.0
 11
14.8196194236415
 21
60.0
 31
0.0
  0
LINE
  5
305E
  8
0
  6
BYBLOCK
 62
     3
 10
2.525886473839717
 20
0.0000000000000071
 30
0.0
 11
14.8196194236415
 21
0.0000000000000071
 31
0.0
  0
LINE
  5
305F
  8
0
  6
BYBLOCK
 62
     3
 10
14.3196194236415
 20
60.0
 30
0.0
 11
14.3196194236415
 21
0.0000000000000071
 31
0.0
  0
SOLID
  5
3060
  8
0
  6
BYBLOCK
 62
     3
 10
14.3196194236415
 20
60.0
 30
0.0
 11
14.06961942364145
 21
58.5
 31
0.0
 12
14.56961942364155
 22
58.5
 32
0.0
 13
14.56961942364155
 23
58.5
 33
0.0
  0
SOLID
  5
3061
  8
0
  6
BYBLOCK
 62
     3
 10
14.3196194236415
 20
0.0000000000000071
 30
0.0
 11
14.06961942364145
 21
1.500000000000007
 31
0.0
 12
14.56961942364155
 22
1.500000000000007
 32
0.0
 13
14.56961942364155
 23
1.500000000000007
 33
0.0
  0
TEXT
  5
3062
  8
0
  6
CONTINUOUS
 62
     3
 10
14.2241846410328
 20
28.38095238095239
 30
0.0
 40
2.0
  1
60
 50
90.0
  7
돋움
  0
ENDBLK
  8
0
  0
BLOCK
  8
0
  2
*D3
 70
     1
 10
0.0
 20
0.0
 30
0.0
  0
POINT
  5
300B
  8
DEFPOINTS
  6
BYBLOCK
 62
     3
 10
-2.500000000000002
 20
0.199999999999993
 30
0.0
  0
POINT
  5
300C
  8
DEFPOINTS
  6
BYBLOCK
 62
     3
 10
2.500000000000002
 20
0.2000000000000122
 30
0.0
  0
LINE
  5
300D
  8
0
  6
BYBLOCK
 62
     3
 10
-2.500000000000002
 20
-0.3000000000000069
 30
0.0
 11
-2.500000000000002
 21
-5.739152365792235
 31
0.0
  0
LINE
  5
300E
  8
0
  6
BYBLOCK
 62
     3
 10
2.500000000000002
 20
-0.2999999999999878
 30
0.0
 11
2.500000000000002
 21
-5.739152365792235
 31
0.0
  0
LINE
  5
300F
  8
0
  6
BYBLOCK
 62
     3
 10
-2.500000000000002
 20
-5.239152365792235
 30
0.0
 11
2.500000000000002
 21
-5.239152365792235
 31
0.0
  0
SOLID
  5
3010
  8
0
  6
BYBLOCK
 62
     3
 10
-2.500000000000002
 20
-5.239152365792235
 30
0.0
 11
-1.000000000000002
 21
-5.489152365792284
 31
0.0
 12
-1.000000000000002
 22
-4.989152365792185
 32
0.0
 13
-1.000000000000002
 23
-4.989152365792185
 33
0.0
  0
SOLID
  5
3011
  8
0
  6
BYBLOCK
 62
     3
 10
2.500000000000002
 20
-5.239152365792235
 30
0.0
 11
1.000000000000002
 21
-5.489152365792284
 31
0.0
 12
1.000000000000002
 22
-4.989152365792185
 32
0.0
 13
1.000000000000002
 23
-4.989152365792185
 33
0.0
  0
INSERT
  5
3012
  8
0
  6
BYBLOCK
 62
     3
  2
*X9
 10
0.0
 20
0.0
 30
0.0
  0
ENDBLK
  8
0
  0
BLOCK
  8
0
  2
*D4
 70
     1
 10
0.0
 20
0.0
 30
0.0
  0
POINT
  5
306B
  8
DEFPOINTS
  6
BYBLOCK
 62
     3
 10
2.275886473839717
 20
0.0000000000000071
 30
0.0
  0
POINT
  5
306C
  8
DEFPOINTS
  6
BYBLOCK
 62
     3
 10
2.500000000000002
 20
15.0
 30
0.0
  0
LINE
  5
306D
  8
0
  6
BYBLOCK
 62
     3
 10
2.775886473839717
 20
0.0000000000000071
 30
0.0
 11
12.13103372962518
 21
0.0000000000000071
 31
0.0
  0
LINE
  5
306E
  8
0
  6
BYBLOCK
 62
     3
 10
3.000000000000002
 20
15.0
 30
0.0
 11
12.13103372962518
 21
15.0
 31
0.0
  0
LINE
  5
306F
  8
0
  6
BYBLOCK
 62
     3
 10
11.63103372962518
 20
0.0000000000000071
 30
0.0
 11
11.63103372962518
 21
15.0
 31
0.0
  0
SOLID
  5
3070
  8
0
  6
BYBLOCK
 62
     3
 10
11.63103372962518
 20
0.0000000000000071
 30
0.0
 11
11.88103372962523
 21
1.500000000000007
 31
0.0
 12
11.38103372962513
 22
1.500000000000007
 32
0.0
 13
11.38103372962513
 23
1.500000000000007
 33
0.0
  0
SOLID
  5
3071
  8
0
  6
BYBLOCK
 62
     3
 10
11.63103372962518
 20
15.0
 30
0.0
 11
11.88103372962523
 21
13.5
 31
0.0
 12
11.38103372962513
 22
13.5
 32
0.0
 13
11.38103372962513
 23
13.5
 33
0.0
  0
TEXT
  5
3072
  8
0
  6
CONTINUOUS
 62
     3
 10
11.53695764266865
 20
6.071428571428574
 30
0.0
 40
2.0
  1
15
 50
90.0
  7
돋움
  0
ENDBLK
  8
0
  0
BLOCK
  8
0
  2
*D7
 70
     1
 10
0.0
 20
0.0
 30
0.0
  0
LINE
  5
2F2F
  8
0
  6
BYBLOCK
 62
     3
 10
-3.931045555036699
 20
-0.2792602606048629
 30
0.0
 11
-11.91830205737412
 21
-2.626205519740771
 31
0.0
  0
LINE
  5
2F30
  8
0
  6
BYBLOCK
 62
     3
 10
-8.974494261493305
 20
-1.761208164475179
 30
0.0
 11
-8.974494261493305
 21
-1.761208164475179
 31
0.0
  0
SOLID
  5
2F31
  8
0
  6
BYBLOCK
 62
     3
 10
-2.49188771235726
 20
0.1436164399288346
 30
0.0
 11
-4.001525005125662
 21
-0.039400620158242
 31
0.0
 12
-3.860566104947735
 22
-0.5191199010514839
 32
0.0
 13
-3.860566104947735
 23
-0.5191199010514839
 33
0.0
  0
TEXT
  5
2F32
  8
0
  6
CONTINUOUS
 62
     3
 10
-11.96955765000671
 20
-2.547461409301408
 30
0.0
 40
2.0
  1
R0.2
 50
16.37469842742211
  7
돋움
  0
POINT
  5
2F33
  8
DEFPOINTS
  6
BYBLOCK
 62
     3
 10
-2.300000000000002
 20
0.1999999999999943
 30
0.0
  0
POINT
  5
2F34
  8
DEFPOINTS
  6
BYBLOCK
 62
     3
 10
-2.49188771235726
 20
0.1436164399288346
 30
0.0
  0
ENDBLK
  8
0
  0
BLOCK
  8
0
  2
*X8
 70
     1
 10
0.0
 20
0.0
 30
0.0
  0
TEXT
  5
30AB
  8
0
  6
CONTINUOUS
 62
     3
 10
-1.854490450352849
 20
62.74638438680276
 30
0.0
 40
2.0
  1
\U+2205
  7
돋움
  0
TEXT
  5
30AC
  8
0
  6
CONTINUOUS
 62
     3
 10
-0.0449666408290401
 20
62.74638438680276
 30
0.0
 40
2.0
  1
6
  7
돋움
  0
ENDBLK
  8
0
  0
BLOCK
  8
0
  2
*X9
 70
     1
 10
0.0
 20
0.0
 30
0.0
  0
TEXT
  5
30AE
  8
0
  6
CONTINUOUS
 62
     3
 10
-1.843844221337487
 20
-5.094804539705279
 30
0.0
 40
2.0
  1
\U+2205
  7
돋움
  0
TEXT
  5
30AF
  8
0
  6
CONTINUOUS
 62
     3
 10
-0.0343204118136775
 20
-5.094804539705279
 30
0.0
 40
2.0
  1
5
  7
돋움
  0
ENDBLK
  8
0
  0
ENDSEC
  0
SECTION
  2
ENTITIES
  0
LINE
  5
394
  8
0
 10
-2.5
 20
60.0
 30
0.0
 11
2.5
 21
60.0
 31
0.0
  0
LINE
  5
398
  8
0
 10
-3.0
 20
16.86602540378443
 30
0.0
 11
-3.0
 21
59.5
 31
0.0
  0
LINE
  5
399
  8
0
 10
3.0
 20
16.86602540378443
 30
0.0
 11
3.0
 21
59.5
 31
0.0
  0
LINE
  5
39A
  8
0
 10
2.500000000000002
 20
15.0
 30
0.0
 11
3.0
 21
16.86602540378443
 31
0.0
  0
LINE
  5
39B
  8
0
 10
-2.500000000000002
 20
15.0
 30
0.0
 11
-3.0
 21
16.86602540378443
 31
0.0
  0
LINE
  5
39C
  8
0
 10
-3.0
 20
59.5
 30
0.0
 11
3.0
 21
59.5
 31
0.0
  0
LINE
  5
39D
  8
0
 10
-3.0
 20
59.5
 30
0.0
 11
-2.5
 21
60.0
 31
0.0
  0
LINE
  5
39E
  8
0
 10
3.0
 20
59.5
 30
0.0
 11
2.5
 21
60.0
 31
0.0
  0
DIMENSION
  5
39F
  8
0
  2
*D1
 10
3.0
 20
62.6020365607158
 30
0.0
 11
-0.3306809265433256
 21
62.6020365607158
 31
0.0
 70
   160
  1
%%c<>
 13
-3.0
 23
59.5
 33
0.0
 14
3.0
 24
59.5
 34
0.0
  0
DIMENSION
  5
89F
  8
0
  2
*D2
 10
14.3196194236415
 20
0.0000000000000064
 30
0.0
 11
13.2241846410328
 21
30.0
 31
0.0
 70
    32
 13
2.5
 23
60.0
 33
0.0
 14
2.025886473839717
 24
0.0000000000000071
 34
0.0
 50
90.0
  0
LINE
  5
1836
  8
0
 10
-2.500000000000002
 20
0.199999999999993
 30
0.0
 11
-2.500000000000002
 21
15.0
 31
0.0
  0
LINE
  5
183B
  8
0
 10
2.500000000000002
 20
0.2000000000000122
 30
0.0
 11
2.500000000000002
 21
15.0
 31
0.0
  0
LINE
  5
1932
  8
0
 10
-2.300000000000002
 20
-0.0000000000000062
 30
0.0
 11
2.300000000000002
 21
0.0000000000000114
 31
0.0
  0
LINE
  5
1943
  8
0
  6
BYBLOCK
 62
     3
 10
0.2999999999999989
 20
0.0
 30
0.0
 11
0.2999999999999989
 21
0.0
 31
0.0
  0
LINE
  5
1944
  8
0
  6
BYBLOCK
 62
     3
 10
0.2999999999999989
 20
0.0
 30
0.0
 11
0.2999999999999989
 21
0.0
 31
0.0
  0
DIMENSION
  5
22BC
  8
0
  2
*D3
 10
2.500000000000002
 20
-5.239152365792235
 30
0.0
 11
-0.2724156499089155
 21
-5.239152365792235
 31
0.0
 70
   160
  1
%%C<>
 13
-2.500000000000002
 23
0.199999999999993
 33
0.0
 14
2.500000000000002
 24
0.2000000000000122
 34
0.0
  0
DIMENSION
  5
2395
  8
0
  2
*D4
 10
11.63103372962518
 20
15.0
 30
0.0
 11
10.53695764266866
 21
7.500000000000003
 31
0.0
 70
    32
 13
2.275886473839717
 23
0.0000000000000071
 33
0.0
 14
2.500000000000002
 24
15.0
 34
0.0
 50
90.0
  0
DIMENSION
  5
2EFD
  8
0
  2
*D7
 10
-2.300000000000002
 20
0.1999999999999943
 30
0.0
 11
-8.974494261493305
 21
-1.761208164475179
 31
0.0
 70
   164
 15
-2.49188771235726
 25
0.1436164399288346
 35
0.0
 40
0.0
  0
ARC
  5
2F51
  8
0
 10
-2.300000000000002
 20
0.1999999999999934
 30
0.0
 40
0.2
 50
180.0000000000001
 51
270.0000000000002
  0
ARC
  5
2F52
  8
0
 10
2.300000000000002
 20
0.2000000000000118
 30
0.0
 40
0.2
 50
270.0
 51
0.0000000000001018
  0
ENDSEC
  0
EOF
