  0
SECTION
  2
HEADER
  9
$ACADVER
  1
AC1006
  9
$DWGCODEPAGE
  3
ansi_949
  9
$INSBASE
 10
0.0
 20
0.0
 30
0.0
  9
$EXTMIN
 10
-9.07945652173913
 20
-5.739152365792235
  9
$EXTMAX
 10
14.57823477406569
 20
54.80073221288972
  9
$LIMMIN
 10
0.0
 20
0.0
  9
$LIMMAX
 10
12.0
 20
9.0
  9
$ORTHOMODE
 70
     1
  9
$REGENMODE
 70
     1
  9
$FILLMODE
 70
     1
  9
$QTEXTMODE
 70
     0
  9
$MIRRTEXT
 70
     0
  9
$DRAGMODE
 70
     2
  9
$LTSCALE
 40
1.0
  9
$OSMODE
 70
    37
  9
$ATTMODE
 70
     1
  9
$TEXTSIZE
 40
0.2
  9
$TRACEWID
 40
0.05
  9
$TEXTSTYLE
  7
STANDARD
  9
$CLAYER
  8
0
  9
$CELTYPE
  6
BYLAYER
  9
$CECOLOR
 62
   256
  9
$DIMSCALE
 40
1.0
  9
$DIMASZ
 40
1.5
  9
$DIMEXO
 40
0.5
  9
$DIMDLI
 40
2.0
  9
$DIMRND
 40
0.0
  9
$DIMDLE
 40
0.0
  9
$DIMEXE
 40
0.5
  9
$DIMTP
 40
0.0
  9
$DIMTM
 40
0.0
  9
$DIMTXT
 40
2.0
  9
$DIMCEN
 40
0.0
  9
$DIMTSZ
 40
0.0
  9
$DIMTOL
 70
     0
  9
$DIMLIM
 70
     0
  9
$DIMTIH
 70
     0
  9
$DIMTOH
 70
     0
  9
$DIMSE1
 70
     0
  9
$DIMSE2
 70
     0
  9
$DIMTAD
 70
     1
  9
$DIMZIN
 70
     0
  9
$DIMBLK
  1

  9
$DIMASO
 70
     1
  9
$DIMSHO
 70
     1
  9
$DIMPOST
  1

  9
$DIMAPOST
  1

  9
$DIMALT
 70
     0
  9
$DIMALTD
 70
     2
  9
$DIMALTF
 40
25.4
  9
$DIMLFAC
 40
1.0
  9
$DIMTOFL
 70
     0
  9
$DIMTVP
 40
0.0
  9
$DIMTIX
 70
     0
  9
$DIMSOXD
 70
     0
  9
$DIMSAH
 70
     0
  9
$DIMBLK1
  1

  9
$DIMBLK2
  1

  9
$LUNITS
 70
     2
  9
$LUPREC
 70
     4
  9
$SKETCHINC
 40
0.1
  9
$FILLETRAD
 40
0.0
  9
$AUNITS
 70
     0
  9
$AUPREC
 70
     0
  9
$MENU
  1
.
  9
$ELEVATION
 40
0.0
  9
$THICKNESS
 40
0.0
  9
$LIMCHECK
 70
     0
  9
$CHAMFERA
 40
0.0
  9
$CHAMFERB
 40
0.0
  9
$SKPOLY
 70
     0
  9
$TDCREATE
 40
2453353.842125822
  9
$TDUPDATE
 40
2459506.318722755
  9
$TDINDWG
 40
0.0800903356
  9
$TDUSRTIMER
 40
0.0800555903
  9
$USRTIMER
 70
     1
  9
$ANGBASE
 50
0.0
  9
$ANGDIR
 70
     0
  9
$PDMODE
 70
     0
  9
$PDSIZE
 40
0.0
  9
$PLINEWID
 40
0.0
  9
$COORDS
 70
     1
  9
$SPLFRAME
 70
     0
  9
$SPLINETYPE
 70
     6
  9
$SPLINESEGS
 70
     8
  9
$ATTDIA
 70
     0
  9
$ATTREQ
 70
     1
  9
$HANDLING
 70
     1
  9
$HANDSEED
  5
2767
  9
$SURFTAB1
 70
     6
  9
$SURFTAB2
 70
     6
  9
$SURFTYPE
 70
     6
  9
$SURFU
 70
     6
  9
$SURFV
 70
     6
  9
$UCSNAME
  2

  9
$UCSORG
 10
0.0
 20
0.0
 30
0.0
  9
$UCSXDIR
 10
1.0
 20
0.0
 30
0.0
  9
$UCSYDIR
 10
0.0
 20
1.0
 30
0.0
  9
$USERI1
 70
     0
  9
$USERI2
 70
     0
  9
$USERI3
 70
     0
  9
$USERI4
 70
     0
  9
$USERI5
 70
     0
  9
$USERR1
 40
0.0
  9
$USERR2
 40
0.0
  9
$USERR3
 40
0.0
  9
$USERR4
 40
0.0
  9
$USERR5
 40
0.0
  9
$WORLDVIEW
 70
     1
  0
ENDSEC
  0
SECTION
  2
TABLES
  0
TABLE
  2
VPORT
 70
     1
  0
VPORT
  2
*ACTIVE
 70
     0
 10
0.0
 20
0.0
 11
1.0
 21
1.0
 12
2.749389126163281
 22
24.53078992354874
 13
0.0
 23
0.0
 14
0.5
 24
0.5
 15
0.5
 25
0.5
 16
0.0
 26
0.0
 36
1.0
 17
0.0
 27
0.0
 37
0.0
 40
61.7506822702556
 41
1.701534170153416
 42
50.0
 43
0.0
 44
0.0
 50
0.0
 51
0.0
 71
    16
 72
  1000
 73
     1
 74
     3
 75
     0
 76
     0
 77
     0
 78
     0
  0
ENDTAB
  0
TABLE
  2
LTYPE
 70
     1
  0
LTYPE
  2
CONTINUOUS
 70
     0
  3
Solid line
 72
    65
 73
     0
 40
0.0
  0
ENDTAB
  0
TABLE
  2
LAYER
 70
     2
  0
LAYER
  2
0
 70
     0
 62
     7
  6
CONTINUOUS
  0
LAYER
  2
DEFPOINTS
 70
     0
 62
     7
  6
CONTINUOUS
  0
ENDTAB
  0
TABLE
  2
STYLE
 70
     2
  0
STYLE
  2
STANDARD
 70
     0
 40
0.0
 41
1.0
 50
0.0
 71
     0
 42
0.2
  3
IC-txt.shx
  4

  0
STYLE
  2
돋움
 70
     0
 40
0.0
 41
1.0
 50
0.0
 71
     0
 42
0.2
  3
Dotum.ttf
  4

  0
ENDTAB
  0
TABLE
  2
VIEW
 70
     0
  0
ENDTAB
  0
TABLE
  2
UCS
 70
     0
  0
ENDTAB
  0
ENDSEC
  0
SECTION
  2
BLOCKS
  0
BLOCK
  8
0
  2
*D1
 70
     1
 10
0.0
 20
0.0
 30
0.0
  0
POINT
  5
24C5
  8
DEFPOINTS
  6
BYBLOCK
 62
     3
 10
-2.0
 20
49.5
 30
0.0
  0
POINT
  5
24C6
  8
DEFPOINTS
  6
BYBLOCK
 62
     3
 10
2.0
 20
49.5
 30
0.0
  0
LINE
  5
24C7
  8
0
  6
BYBLOCK
 62
     3
 10
-2.0
 20
50.0
 30
0.0
 11
-2.0
 21
53.1020365607158
 31
0.0
  0
LINE
  5
24C8
  8
0
  6
BYBLOCK
 62
     3
 10
2.0
 20
50.0
 30
0.0
 11
2.0
 21
53.1020365607158
 31
0.0
  0
LINE
  5
24C9
  8
0
  6
BYBLOCK
 62
     3
 10
-2.0
 20
52.6020365607158
 30
0.0
 11
2.0
 21
52.6020365607158
 31
0.0
  0
SOLID
  5
24CA
  8
0
  6
BYBLOCK
 62
     3
 10
-2.0
 20
52.6020365607158
 30
0.0
 11
-0.5
 21
52.35203656071575
 31
0.0
 12
-0.5
 22
52.85203656071585
 32
0.0
 13
-0.5
 23
52.85203656071585
 33
0.0
  0
SOLID
  5
24CB
  8
0
  6
BYBLOCK
 62
     3
 10
2.0
 20
52.6020365607158
 30
0.0
 11
0.5
 21
52.35203656071575
 31
0.0
 12
0.5
 22
52.85203656071585
 32
0.0
 13
0.5
 23
52.85203656071585
 33
0.0
  0
INSERT
  5
24CC
  8
0
  6
BYBLOCK
 62
     3
  2
*X6
 10
0.0
 20
0.0
 30
0.0
  0
ENDBLK
  8
0
  0
BLOCK
  8
0
  2
*D2
 70
     1
 10
0.0
 20
0.0
 30
0.0
  0
POINT
  5
26E0
  8
DEFPOINTS
  6
BYBLOCK
 62
     3
 10
1.5
 20
50.0
 30
0.0
  0
POINT
  5
26E1
  8
DEFPOINTS
  6
BYBLOCK
 62
     3
 10
1.250000000000002
 20
0.0000000000000122
 30
0.0
  0
LINE
  5
26E2
  8
0
  6
BYBLOCK
 62
     3
 10
2.0
 20
50.0
 30
0.0
 11
14.57823477406569
 21
50.0
 31
0.0
  0
LINE
  5
26E3
  8
0
  6
BYBLOCK
 62
     3
 10
1.750000000000002
 20
0.0000000000000142
 30
0.0
 11
14.57823477406569
 21
0.0000000000000142
 31
0.0
  0
LINE
  5
26E4
  8
0
  6
BYBLOCK
 62
     3
 10
14.07823477406569
 20
50.0
 30
0.0
 11
14.07823477406569
 21
0.0000000000000142
 31
0.0
  0
SOLID
  5
26E5
  8
0
  6
BYBLOCK
 62
     3
 10
14.07823477406569
 20
50.0
 30
0.0
 11
13.82823477406564
 21
48.5
 31
0.0
 12
14.32823477406574
 22
48.5
 32
0.0
 13
14.32823477406574
 23
48.5
 33
0.0
  0
SOLID
  5
26E6
  8
0
  6
BYBLOCK
 62
     3
 10
14.07823477406569
 20
0.0000000000000142
 30
0.0
 11
13.82823477406564
 21
1.500000000000014
 31
0.0
 12
14.32823477406574
 22
1.500000000000014
 32
0.0
 13
14.32823477406574
 23
1.500000000000014
 33
0.0
  0
TEXT
  5
26E7
  8
0
  6
CONTINUOUS
 62
     3
 10
13.98415868710917
 20
23.38095238095239
 30
0.0
 40
2.0
  1
50
 50
90.0
  7
돋움
  0
ENDBLK
  8
0
  0
BLOCK
  8
0
  2
*D4
 70
     1
 10
0.0
 20
0.0
 30
0.0
  0
POINT
  5
2676
  8
DEFPOINTS
  6
BYBLOCK
 62
     3
 10
-1.250000000000002
 20
-0.0000000000000051
 30
0.0
  0
POINT
  5
2677
  8
DEFPOINTS
  6
BYBLOCK
 62
     3
 10
1.250000000000002
 20
0.0000000000000122
 30
0.0
  0
LINE
  5
2678
  8
0
  6
BYBLOCK
 62
     3
 10
-1.250000000000002
 20
-0.5000000000000051
 30
0.0
 11
-1.250000000000002
 21
-5.739152365792235
 31
0.0
  0
LINE
  5
2679
  8
0
  6
BYBLOCK
 62
     3
 10
1.250000000000002
 20
-0.4999999999999878
 30
0.0
 11
1.250000000000002
 21
-5.739152365792235
 31
0.0
  0
LINE
  5
267A
  8
0
  6
BYBLOCK
 62
     3
 10
2.750000000000002
 20
-5.239152365792235
 30
0.0
 11
4.250000000000002
 21
-5.239152365792235
 31
0.0
  0
SOLID
  5
267B
  8
0
  6
BYBLOCK
 62
     3
 10
-1.250000000000002
 20
-5.239152365792235
 30
0.0
 11
-2.750000000000002
 21
-5.489152365792284
 31
0.0
 12
-2.750000000000002
 22
-4.989152365792185
 32
0.0
 13
-2.750000000000002
 23
-4.989152365792185
 33
0.0
  0
LINE
  5
267C
  8
0
  6
BYBLOCK
 62
     3
 10
-2.750000000000002
 20
-5.239152365792235
 30
0.0
 11
-9.07945652173913
 21
-5.239152365792235
 31
0.0
  0
SOLID
  5
267D
  8
0
  6
BYBLOCK
 62
     3
 10
1.250000000000002
 20
-5.239152365792235
 30
0.0
 11
2.750000000000002
 21
-5.489152365792284
 31
0.0
 12
2.750000000000002
 22
-4.989152365792185
 32
0.0
 13
2.750000000000002
 23
-4.989152365792185
 33
0.0
  0
INSERT
  5
267E
  8
0
  6
BYBLOCK
 62
     3
  2
*X7
 10
0.0
 20
0.0
 30
0.0
  0
ENDBLK
  8
0
  0
BLOCK
  8
0
  2
*D5
 70
     1
 10
0.0
 20
0.0
 30
0.0
  0
POINT
  5
2722
  8
DEFPOINTS
  6
BYBLOCK
 62
     3
 10
1.25
 20
0.0000000000000071
 30
0.0
  0
POINT
  5
2723
  8
DEFPOINTS
  6
BYBLOCK
 62
     3
 10
1.250000000000002
 20
10.0
 30
0.0
  0
LINE
  5
2724
  8
0
  6
BYBLOCK
 62
     3
 10
1.75
 20
0.0000000000000071
 30
0.0
 11
11.63964908004937
 21
0.0000000000000071
 31
0.0
  0
LINE
  5
2725
  8
0
  6
BYBLOCK
 62
     3
 10
1.750000000000002
 20
10.0
 30
0.0
 11
11.63964908004937
 21
10.0
 31
0.0
  0
LINE
  5
2726
  8
0
  6
BYBLOCK
 62
     3
 10
11.13964908004937
 20
0.0000000000000071
 30
0.0
 11
11.13964908004937
 21
10.0
 31
0.0
  0
SOLID
  5
2727
  8
0
  6
BYBLOCK
 62
     3
 10
11.13964908004937
 20
0.0000000000000071
 30
0.0
 11
11.38964908004942
 21
1.500000000000007
 31
0.0
 12
10.88964908004932
 22
1.500000000000007
 32
0.0
 13
10.88964908004932
 23
1.500000000000007
 33
0.0
  0
SOLID
  5
2728
  8
0
  6
BYBLOCK
 62
     3
 10
11.13964908004937
 20
10.0
 30
0.0
 11
11.38964908004942
 21
8.500000000000002
 31
0.0
 12
10.88964908004932
 22
8.500000000000002
 32
0.0
 13
10.88964908004932
 23
8.500000000000002
 33
0.0
  0
TEXT
  5
2729
  8
0
  6
CONTINUOUS
 62
     3
 10
11.04557299309285
 20
3.571428571428576
 30
0.0
 40
2.0
  1
10
 50
90.0
  7
돋움
  0
ENDBLK
  8
0
  0
BLOCK
  8
0
  2
*X6
 70
     1
 10
0.0
 20
0.0
 30
0.0
  0
TEXT
  5
275E
  8
0
  6
CONTINUOUS
 62
     3
 10
-1.949728545590945
 20
52.74638438680276
 30
0.0
 40
2.0
  1
\U+2205
  7
돋움
  0
TEXT
  5
275F
  8
0
  6
CONTINUOUS
 62
     3
 10
-0.1402047360671352
 20
52.74638438680276
 30
0.0
 40
2.0
  1
4
  7
돋움
  0
ENDBLK
  8
0
  0
BLOCK
  8
0
  2
*X7
 70
     1
 10
0.0
 20
0.0
 30
0.0
  0
TEXT
  5
2761
  8
0
  6
CONTINUOUS
 62
     3
 10
-8.914728260869566
 20
-5.094804539705278
 30
0.0
 40
2.0
  1
\U+2205
  7
돋움
  0
TEXT
  5
2762
  8
0
  6
CONTINUOUS
 62
     3
 10
-7.105204451345757
 20
-5.094804539705278
 30
0.0
 40
2.0
  1
2.5
  7
돋움
  0
ENDBLK
  8
0
  0
ENDSEC
  0
SECTION
  2
ENTITIES
  0
LINE
  5
394
  8
0
 10
-1.5
 20
50.0
 30
0.0
 11
1.5
 21
50.0
 31
0.0
  0
LINE
  5
398
  8
0
 10
-2.0
 20
12.79903810567666
 30
0.0
 11
-2.0
 21
49.5
 31
0.0
  0
LINE
  5
399
  8
0
 10
2.0
 20
12.79903810567665
 30
0.0
 11
2.0
 21
49.5
 31
0.0
  0
LINE
  5
39A
  8
0
 10
1.250000000000002
 20
10.0
 30
0.0
 11
2.0
 21
12.79903810567665
 31
0.0
  0
LINE
  5
39B
  8
0
 10
-1.250000000000002
 20
10.0
 30
0.0
 11
-2.0
 21
12.79903810567666
 31
0.0
  0
LINE
  5
39C
  8
0
 10
-2.0
 20
49.5
 30
0.0
 11
2.0
 21
49.5
 31
0.0
  0
LINE
  5
39D
  8
0
 10
-2.0
 20
49.5
 30
0.0
 11
-1.5
 21
50.0
 31
0.0
  0
LINE
  5
39E
  8
0
 10
2.0
 20
49.5
 30
0.0
 11
1.5
 21
50.0
 31
0.0
  0
DIMENSION
  5
39F
  8
0
  2
*D1
 10
2.0
 20
52.6020365607158
 30
0.0
 11
-0.3306809265433256
 21
52.6020365607158
 31
0.0
 70
   160
  1
%%c<>
 13
-2.0
 23
49.5
 33
0.0
 14
2.0
 24
49.5
 34
0.0
  0
DIMENSION
  5
89F
  8
0
  2
*D2
 10
14.07823477406569
 20
0.0000000000000114
 30
0.0
 11
12.98415868710917
 21
25.00000000000001
 31
0.0
 70
    32
 13
1.5
 23
50.0
 33
0.0
 14
1.250000000000002
 24
0.0000000000000122
 34
0.0
 50
90.0
  0
LINE
  5
1836
  8
0
 10
-1.250000000000002
 20
-0.0000000000000051
 30
0.0
 11
-1.250000000000002
 21
10.0
 31
0.0
  0
LINE
  5
183B
  8
0
 10
1.250000000000002
 20
0.0000000000000122
 30
0.0
 11
1.250000000000002
 21
10.0
 31
0.0
  0
LINE
  5
1932
  8
0
 10
-1.250000000000002
 20
-0.0000000000000051
 30
0.0
 11
1.250000000000002
 21
0.0000000000000122
 31
0.0
  0
LINE
  5
1943
  8
0
  6
BYBLOCK
 62
     3
 10
0.0499999999999989
 20
0.0
 30
0.0
 11
0.0499999999999989
 21
0.0
 31
0.0
  0
LINE
  5
1944
  8
0
  6
BYBLOCK
 62
     3
 10
0.0499999999999989
 20
0.0
 30
0.0
 11
0.0499999999999989
 21
0.0
 31
0.0
  0
DIMENSION
  5
22BC
  8
0
  2
*D4
 10
1.250000000000002
 20
-5.239152365792235
 30
0.0
 11
-3.868369565217393
 21
-5.239152365792235
 31
0.0
 70
   160
  1
%%C<>
 13
-1.250000000000002
 23
-0.0000000000000051
 33
0.0
 14
1.250000000000002
 24
0.0000000000000122
 34
0.0
  0
DIMENSION
  5
2395
  8
0
  2
*D5
 10
11.13964908004937
 20
10.0
 30
0.0
 11
10.04557299309285
 21
5.000000000000004
 31
0.0
 70
    32
 13
1.25
 23
0.0000000000000071
 33
0.0
 14
1.250000000000002
 24
10.0
 34
0.0
 50
90.0
  0
ENDSEC
  0
EOF
