  0
SECTION
  2
HEADER
  9
$ACADVER
  1
AC1006
  9
$DWGCODEPAGE
  3
ansi_949
  9
$INSBASE
 10
0.0
 20
0.0
 30
0.0
  9
$EXTMIN
 10
-3.0
 20
-5.739152365792235
  9
$EXTMAX
 10
16.26950722757612
 20
74.80073221288973
  9
$LIMMIN
 10
0.0
 20
0.0
  9
$LIMMAX
 10
12.0
 20
9.0
  9
$ORTHOMODE
 70
     1
  9
$REGENMODE
 70
     1
  9
$FILLMODE
 70
     1
  9
$QTEXTMODE
 70
     0
  9
$MIRRTEXT
 70
     0
  9
$DRAGMODE
 70
     2
  9
$LTSCALE
 40
1.0
  9
$OSMODE
 70
    37
  9
$ATTMODE
 70
     1
  9
$TEXTSIZE
 40
0.2
  9
$TRACEWID
 40
0.05
  9
$TEXTSTYLE
  7
STANDARD
  9
$CLAYER
  8
0
  9
$CELTYPE
  6
BYLAYER
  9
$CECOLOR
 62
   256
  9
$DIMSCALE
 40
1.0
  9
$DIMASZ
 40
1.5
  9
$DIMEXO
 40
0.5
  9
$DIMDLI
 40
2.0
  9
$DIMRND
 40
0.0
  9
$DIMDLE
 40
0.0
  9
$DIMEXE
 40
0.5
  9
$DIMTP
 40
0.0
  9
$DIMTM
 40
0.0
  9
$DIMTXT
 40
2.0
  9
$DIMCEN
 40
0.0
  9
$DIMTSZ
 40
0.0
  9
$DIMTOL
 70
     0
  9
$DIMLIM
 70
     0
  9
$DIMTIH
 70
     0
  9
$DIMTOH
 70
     0
  9
$DIMSE1
 70
     0
  9
$DIMSE2
 70
     0
  9
$DIMTAD
 70
     1
  9
$DIMZIN
 70
     0
  9
$DIMBLK
  1

  9
$DIMASO
 70
     1
  9
$DIMSHO
 70
     1
  9
$DIMPOST
  1

  9
$DIMAPOST
  1

  9
$DIMALT
 70
     0
  9
$DIMALTD
 70
     2
  9
$DIMALTF
 40
25.4
  9
$DIMLFAC
 40
1.0
  9
$DIMTOFL
 70
     0
  9
$DIMTVP
 40
0.0
  9
$DIMTIX
 70
     0
  9
$DIMSOXD
 70
     0
  9
$DIMSAH
 70
     0
  9
$DIMBLK1
  1

  9
$DIMBLK2
  1

  9
$LUNITS
 70
     2
  9
$LUPREC
 70
     4
  9
$SKETCHINC
 40
0.1
  9
$FILLETRAD
 40
0.0
  9
$AUNITS
 70
     0
  9
$AUPREC
 70
     0
  9
$MENU
  1
.
  9
$ELEVATION
 40
0.0
  9
$THICKNESS
 40
0.0
  9
$LIMCHECK
 70
     0
  9
$CHAMFERA
 40
0.0
  9
$CHAMFERB
 40
0.0
  9
$SKPOLY
 70
     0
  9
$TDCREATE
 40
2453353.842125822
  9
$TDUPDATE
 40
2459506.31808956
  9
$TDINDWG
 40
0.0862014352
  9
$TDUSRTIMER
 40
0.086166713
  9
$USRTIMER
 70
     1
  9
$ANGBASE
 50
0.0
  9
$ANGDIR
 70
     0
  9
$PDMODE
 70
     0
  9
$PDSIZE
 40
0.0
  9
$PLINEWID
 40
0.0
  9
$COORDS
 70
     1
  9
$SPLFRAME
 70
     0
  9
$SPLINETYPE
 70
     6
  9
$SPLINESEGS
 70
     8
  9
$ATTDIA
 70
     0
  9
$ATTREQ
 70
     1
  9
$HANDLING
 70
     1
  9
$HANDSEED
  5
309C
  9
$SURFTAB1
 70
     6
  9
$SURFTAB2
 70
     6
  9
$SURFTYPE
 70
     6
  9
$SURFU
 70
     6
  9
$SURFV
 70
     6
  9
$UCSNAME
  2

  9
$UCSORG
 10
0.0
 20
0.0
 30
0.0
  9
$UCSXDIR
 10
1.0
 20
0.0
 30
0.0
  9
$UCSYDIR
 10
0.0
 20
1.0
 30
0.0
  9
$USERI1
 70
     0
  9
$USERI2
 70
     0
  9
$USERI3
 70
     0
  9
$USERI4
 70
     0
  9
$USERI5
 70
     0
  9
$USERR1
 40
0.0
  9
$USERR2
 40
0.0
  9
$USERR3
 40
0.0
  9
$USERR4
 40
0.0
  9
$USERR5
 40
0.0
  9
$WORLDVIEW
 70
     1
  0
ENDSEC
  0
SECTION
  2
TABLES
  0
TABLE
  2
VPORT
 70
     1
  0
VPORT
  2
*ACTIVE
 70
     0
 10
0.0
 20
0.0
 11
1.0
 21
1.0
 12
6.63475361378806
 22
34.53078992354875
 13
0.0
 23
0.0
 14
0.5
 24
0.5
 15
0.5
 25
0.5
 16
0.0
 26
0.0
 36
1.0
 17
0.0
 27
0.0
 37
0.0
 40
82.1506822702556
 41
1.701534170153416
 42
50.0
 43
0.0
 44
0.0
 50
0.0
 51
0.0
 71
    16
 72
  1000
 73
     1
 74
     3
 75
     0
 76
     0
 77
     0
 78
     0
  0
ENDTAB
  0
TABLE
  2
LTYPE
 70
     1
  0
LTYPE
  2
CONTINUOUS
 70
     0
  3
Solid line
 72
    65
 73
     0
 40
0.0
  0
ENDTAB
  0
TABLE
  2
LAYER
 70
     2
  0
LAYER
  2
0
 70
     0
 62
     7
  6
CONTINUOUS
  0
LAYER
  2
DEFPOINTS
 70
     0
 62
     7
  6
CONTINUOUS
  0
ENDTAB
  0
TABLE
  2
STYLE
 70
     2
  0
STYLE
  2
STANDARD
 70
     0
 40
0.0
 41
1.0
 50
0.0
 71
     0
 42
0.2
  3
IC-txt.shx
  4

  0
STYLE
  2
돋움
 70
     0
 40
0.0
 41
1.0
 50
0.0
 71
     0
 42
0.2
  3
Dotum.ttf
  4

  0
ENDTAB
  0
TABLE
  2
VIEW
 70
     0
  0
ENDTAB
  0
TABLE
  2
UCS
 70
     0
  0
ENDTAB
  0
ENDSEC
  0
SECTION
  2
BLOCKS
  0
BLOCK
  8
0
  2
*D1
 70
     1
 10
0.0
 20
0.0
 30
0.0
  0
POINT
  5
3037
  8
DEFPOINTS
  6
BYBLOCK
 62
     3
 10
-3.0
 20
69.5
 30
0.0
  0
POINT
  5
3038
  8
DEFPOINTS
  6
BYBLOCK
 62
     3
 10
3.0
 20
69.5
 30
0.0
  0
LINE
  5
3039
  8
0
  6
BYBLOCK
 62
     3
 10
-3.0
 20
70.0
 30
0.0
 11
-3.0
 21
73.10203656071582
 31
0.0
  0
LINE
  5
303A
  8
0
  6
BYBLOCK
 62
     3
 10
3.0
 20
70.0
 30
0.0
 11
3.0
 21
73.10203656071582
 31
0.0
  0
LINE
  5
303B
  8
0
  6
BYBLOCK
 62
     3
 10
-3.0
 20
72.60203656071582
 30
0.0
 11
3.0
 21
72.60203656071582
 31
0.0
  0
SOLID
  5
303C
  8
0
  6
BYBLOCK
 62
     3
 10
-3.0
 20
72.60203656071582
 30
0.0
 11
-1.5
 21
72.35203656071576
 31
0.0
 12
-1.5
 22
72.85203656071587
 32
0.0
 13
-1.5
 23
72.85203656071587
 33
0.0
  0
SOLID
  5
303D
  8
0
  6
BYBLOCK
 62
     3
 10
3.0
 20
72.60203656071582
 30
0.0
 11
1.5
 21
72.35203656071576
 31
0.0
 12
1.5
 22
72.85203656071587
 32
0.0
 13
1.5
 23
72.85203656071587
 33
0.0
  0
INSERT
  5
303E
  8
0
  6
BYBLOCK
 62
     3
  2
*X6
 10
0.0
 20
0.0
 30
0.0
  0
ENDBLK
  8
0
  0
BLOCK
  8
0
  2
*D2
 70
     1
 10
0.0
 20
0.0
 30
0.0
  0
POINT
  5
3047
  8
DEFPOINTS
  6
BYBLOCK
 62
     3
 10
2.5
 20
70.0
 30
0.0
  0
POINT
  5
3048
  8
DEFPOINTS
  6
BYBLOCK
 62
     3
 10
2.750000000000002
 20
0.0000000000000142
 30
0.0
  0
LINE
  5
3049
  8
0
  6
BYBLOCK
 62
     3
 10
3.0
 20
70.0
 30
0.0
 11
16.26950722757612
 21
70.0
 31
0.0
  0
LINE
  5
304A
  8
0
  6
BYBLOCK
 62
     3
 10
3.250000000000002
 20
0.0000000000000142
 30
0.0
 11
16.26950722757612
 21
0.0000000000000142
 31
0.0
  0
LINE
  5
304B
  8
0
  6
BYBLOCK
 62
     3
 10
15.76950722757612
 20
70.0
 30
0.0
 11
15.76950722757612
 21
0.0000000000000142
 31
0.0
  0
SOLID
  5
304C
  8
0
  6
BYBLOCK
 62
     3
 10
15.76950722757612
 20
70.0
 30
0.0
 11
15.51950722757607
 21
68.5
 31
0.0
 12
16.01950722757617
 22
68.5
 32
0.0
 13
16.01950722757617
 23
68.5
 33
0.0
  0
SOLID
  5
304D
  8
0
  6
BYBLOCK
 62
     3
 10
15.76950722757612
 20
0.0000000000000142
 30
0.0
 11
15.51950722757607
 21
1.500000000000014
 31
0.0
 12
16.01950722757617
 22
1.500000000000014
 32
0.0
 13
16.01950722757617
 23
1.500000000000014
 33
0.0
  0
TEXT
  5
304E
  8
0
  6
CONTINUOUS
 62
     3
 10
15.6754311406196
 20
33.38095238095239
 30
0.0
 40
2.0
  1
70
 50
90.0
  7
돋움
  0
ENDBLK
  8
0
  0
BLOCK
  8
0
  2
*D4
 70
     1
 10
0.0
 20
0.0
 30
0.0
  0
POINT
  5
2FC7
  8
DEFPOINTS
  6
BYBLOCK
 62
     3
 10
-3.0
 20
-0.0000000000000079
 30
0.0
  0
POINT
  5
2FC8
  8
DEFPOINTS
  6
BYBLOCK
 62
     3
 10
2.999999999999996
 20
0.0000000000000071
 30
0.0
  0
LINE
  5
2FC9
  8
0
  6
BYBLOCK
 62
     3
 10
-3.0
 20
-0.5000000000000079
 30
0.0
 11
-3.0
 21
-5.739152365792235
 31
0.0
  0
LINE
  5
2FCA
  8
0
  6
BYBLOCK
 62
     3
 10
2.999999999999996
 20
-0.4999999999999929
 30
0.0
 11
2.999999999999996
 21
-5.739152365792235
 31
0.0
  0
LINE
  5
2FCB
  8
0
  6
BYBLOCK
 62
     3
 10
-3.0
 20
-5.239152365792235
 30
0.0
 11
2.999999999999996
 21
-5.239152365792235
 31
0.0
  0
SOLID
  5
2FCC
  8
0
  6
BYBLOCK
 62
     3
 10
-3.0
 20
-5.239152365792235
 30
0.0
 11
-1.5
 21
-5.489152365792284
 31
0.0
 12
-1.5
 22
-4.989152365792185
 32
0.0
 13
-1.5
 23
-4.989152365792185
 33
0.0
  0
SOLID
  5
2FCD
  8
0
  6
BYBLOCK
 62
     3
 10
2.999999999999996
 20
-5.239152365792235
 30
0.0
 11
1.499999999999996
 21
-5.489152365792284
 31
0.0
 12
1.499999999999996
 22
-4.989152365792185
 32
0.0
 13
1.499999999999996
 23
-4.989152365792185
 33
0.0
  0
INSERT
  5
2FCE
  8
0
  6
BYBLOCK
 62
     3
  2
*X7
 10
0.0
 20
0.0
 30
0.0
  0
ENDBLK
  8
0
  0
BLOCK
  8
0
  2
*D5
 70
     1
 10
0.0
 20
0.0
 30
0.0
  0
POINT
  5
3057
  8
DEFPOINTS
  6
BYBLOCK
 62
     3
 10
2.999999999999996
 20
0.0000000000000071
 30
0.0
  0
POINT
  5
3058
  8
DEFPOINTS
  6
BYBLOCK
 62
     3
 10
2.999999999999998
 20
25.0
 30
0.0
  0
LINE
  5
3059
  8
0
  6
BYBLOCK
 62
     3
 10
3.499999999999996
 20
0.0000000000000071
 30
0.0
 11
11.93889925117204
 21
0.0000000000000071
 31
0.0
  0
LINE
  5
305A
  8
0
  6
BYBLOCK
 62
     3
 10
3.499999999999998
 20
25.0
 30
0.0
 11
11.93889925117204
 21
25.0
 31
0.0
  0
LINE
  5
305B
  8
0
  6
BYBLOCK
 62
     3
 10
11.43889925117204
 20
0.0000000000000071
 30
0.0
 11
11.43889925117204
 21
25.0
 31
0.0
  0
SOLID
  5
305C
  8
0
  6
BYBLOCK
 62
     3
 10
11.43889925117204
 20
0.0000000000000071
 30
0.0
 11
11.68889925117209
 21
1.500000000000007
 31
0.0
 12
11.18889925117199
 22
1.500000000000007
 32
0.0
 13
11.18889925117199
 23
1.500000000000007
 33
0.0
  0
SOLID
  5
305D
  8
0
  6
BYBLOCK
 62
     3
 10
11.43889925117204
 20
25.0
 30
0.0
 11
11.68889925117209
 21
23.5
 31
0.0
 12
11.18889925117199
 22
23.5
 32
0.0
 13
11.18889925117199
 23
23.5
 33
0.0
  0
TEXT
  5
305E
  8
0
  6
CONTINUOUS
 62
     3
 10
11.34482316421552
 20
10.88095238095238
 30
0.0
 40
2.0
  1
25
 50
90.0
  7
돋움
  0
ENDBLK
  8
0
  0
BLOCK
  8
0
  2
*X6
 70
     1
 10
0.0
 20
0.0
 30
0.0
  0
TEXT
  5
3093
  8
0
  6
CONTINUOUS
 62
     3
 10
-1.854490450352849
 20
72.74638438680277
 30
0.0
 40
2.0
  1
\U+2205
  7
돋움
  0
TEXT
  5
3094
  8
0
  6
CONTINUOUS
 62
     3
 10
-0.0449666408290401
 20
72.74638438680277
 30
0.0
 40
2.0
  1
6
  7
돋움
  0
ENDBLK
  8
0
  0
BLOCK
  8
0
  2
*X7
 70
     1
 10
0.0
 20
0.0
 30
0.0
  0
TEXT
  5
3096
  8
0
  6
CONTINUOUS
 62
     3
 10
-1.523809523809526
 20
-5.094804539705279
 30
0.0
 40
2.0
  1
\U+2205
  7
돋움
  0
TEXT
  5
3097
  8
0
  6
CONTINUOUS
 62
     3
 10
0.2857142857142838
 20
-5.094804539705279
 30
0.0
 40
2.0
  1
6
  7
돋움
  0
ENDBLK
  8
0
  0
ENDSEC
  0
SECTION
  2
ENTITIES
  0
LINE
  5
394
  8
0
 10
-2.5
 20
70.0
 30
0.0
 11
2.5
 21
70.0
 31
0.0
  0
LINE
  5
398
  8
0
 10
-3.0
 20
-0.0000000000000079
 30
0.0
 11
-3.0
 21
69.5
 31
0.0
  0
LINE
  5
399
  8
0
 10
3.0
 20
0.000000000000015
 30
0.0
 11
3.0
 21
69.5
 31
0.0
  0
LINE
  5
39C
  8
0
 10
-3.0
 20
69.5
 30
0.0
 11
3.0
 21
69.5
 31
0.0
  0
LINE
  5
39D
  8
0
 10
-3.0
 20
69.5
 30
0.0
 11
-2.5
 21
70.0
 31
0.0
  0
LINE
  5
39E
  8
0
 10
3.0
 20
69.5
 30
0.0
 11
2.5
 21
70.0
 31
0.0
  0
DIMENSION
  5
39F
  8
0
  2
*D1
 10
3.0
 20
72.60203656071582
 30
0.0
 11
-0.3306809265433256
 21
72.60203656071582
 31
0.0
 70
   160
  1
%%c<>
 13
-3.0
 23
69.5
 33
0.0
 14
3.0
 24
69.5
 34
0.0
  0
DIMENSION
  5
89F
  8
0
  2
*D2
 10
15.76950722757612
 20
0.0000000000000134
 30
0.0
 11
14.6754311406196
 21
35.00000000000001
 31
0.0
 70
    32
 13
2.5
 23
70.0
 33
0.0
 14
2.750000000000002
 24
0.0000000000000142
 34
0.0
 50
90.0
  0
LINE
  5
1932
  8
0
 10
-3.0
 20
-0.0000000000000079
 30
0.0
 11
3.0
 21
0.000000000000015
 31
0.0
  0
LINE
  5
1943
  8
0
  6
BYBLOCK
 62
     3
 10
0.5499999999999954
 20
0.0
 30
0.0
 11
0.5499999999999954
 21
0.0
 31
0.0
  0
LINE
  5
1944
  8
0
  6
BYBLOCK
 62
     3
 10
0.5499999999999954
 20
0.0
 30
0.0
 11
0.5499999999999954
 21
0.0
 31
0.0
  0
DIMENSION
  5
22BC
  8
0
  2
*D4
 10
2.999999999999996
 20
-5.239152365792235
 30
0.0
 11
-0.0000000000000018
 21
-5.239152365792235
 31
0.0
 70
   160
  1
%%C<>
 13
-3.0
 23
-0.0000000000000079
 33
0.0
 14
2.999999999999996
 24
0.0000000000000071
 34
0.0
  0
DIMENSION
  5
2395
  8
0
  2
*D5
 10
11.43889925117204
 20
25.0
 30
0.0
 11
10.34482316421552
 21
12.5
 31
0.0
 70
    32
 13
2.999999999999996
 23
0.0000000000000071
 33
0.0
 14
2.999999999999998
 24
25.0
 34
0.0
 50
90.0
  0
ENDSEC
  0
EOF
