  0
SECTION
  2
HEADER
  9
$ACADVER
  1
AC1006
  9
$DWGCODEPAGE
  3
ansi_949
  9
$INSBASE
 10
0.0
 20
0.0
 30
0.0
  9
$EXTMIN
 10
-9.590231326254111
 20
-6.670604419696141
  9
$EXTMAX
 10
18.07795858031444
 20
54.80073221288972
  9
$LIMMIN
 10
0.0
 20
0.0
  9
$LIMMAX
 10
12.0
 20
9.0
  9
$ORTHOMODE
 70
     1
  9
$REGENMODE
 70
     1
  9
$FILLMODE
 70
     1
  9
$QTEXTMODE
 70
     0
  9
$MIRRTEXT
 70
     0
  9
$DRAGMODE
 70
     2
  9
$LTSCALE
 40
1.0
  9
$OSMODE
 70
    37
  9
$ATTMODE
 70
     1
  9
$TEXTSIZE
 40
0.2
  9
$TRACEWID
 40
0.05
  9
$TEXTSTYLE
  7
STANDARD
  9
$CLAYER
  8
0
  9
$CELTYPE
  6
BYLAYER
  9
$CECOLOR
 62
   256
  9
$DIMSCALE
 40
1.0
  9
$DIMASZ
 40
1.5
  9
$DIMEXO
 40
0.5
  9
$DIMDLI
 40
2.0
  9
$DIMRND
 40
0.0
  9
$DIMDLE
 40
0.0
  9
$DIMEXE
 40
0.5
  9
$DIMTP
 40
0.0
  9
$DIMTM
 40
0.0
  9
$DIMTXT
 40
2.0
  9
$DIMCEN
 40
0.0
  9
$DIMTSZ
 40
0.0
  9
$DIMTOL
 70
     0
  9
$DIMLIM
 70
     0
  9
$DIMTIH
 70
     0
  9
$DIMTOH
 70
     0
  9
$DIMSE1
 70
     0
  9
$DIMSE2
 70
     0
  9
$DIMTAD
 70
     1
  9
$DIMZIN
 70
     0
  9
$DIMBLK
  1

  9
$DIMASO
 70
     1
  9
$DIMSHO
 70
     1
  9
$DIMPOST
  1

  9
$DIMAPOST
  1

  9
$DIMALT
 70
     0
  9
$DIMALTD
 70
     2
  9
$DIMALTF
 40
25.4
  9
$DIMLFAC
 40
1.0
  9
$DIMTOFL
 70
     0
  9
$DIMTVP
 40
0.0
  9
$DIMTIX
 70
     0
  9
$DIMSOXD
 70
     0
  9
$DIMSAH
 70
     0
  9
$DIMBLK1
  1

  9
$DIMBLK2
  1

  9
$LUNITS
 70
     2
  9
$LUPREC
 70
     4
  9
$SKETCHINC
 40
0.1
  9
$FILLETRAD
 40
0.0
  9
$AUNITS
 70
     0
  9
$AUPREC
 70
     0
  9
$MENU
  1
.
  9
$ELEVATION
 40
0.0
  9
$THICKNESS
 40
0.0
  9
$LIMCHECK
 70
     0
  9
$CHAMFERA
 40
0.0
  9
$CHAMFERB
 40
0.0
  9
$SKPOLY
 70
     0
  9
$TDCREATE
 40
2453353.842125822
  9
$TDUPDATE
 40
2459506.325610139
  9
$TDINDWG
 40
0.0763519097
  9
$TDUSRTIMER
 40
0.0763171644
  9
$USRTIMER
 70
     1
  9
$ANGBASE
 50
0.0
  9
$ANGDIR
 70
     0
  9
$PDMODE
 70
     0
  9
$PDSIZE
 40
0.0
  9
$PLINEWID
 40
0.0
  9
$COORDS
 70
     1
  9
$SPLFRAME
 70
     0
  9
$SPLINETYPE
 70
     6
  9
$SPLINESEGS
 70
     8
  9
$ATTDIA
 70
     0
  9
$ATTREQ
 70
     1
  9
$HANDLING
 70
     1
  9
$HANDSEED
  5
20AA
  9
$SURFTAB1
 70
     6
  9
$SURFTAB2
 70
     6
  9
$SURFTYPE
 70
     6
  9
$SURFU
 70
     6
  9
$SURFV
 70
     6
  9
$UCSNAME
  2

  9
$UCSORG
 10
0.0
 20
0.0
 30
0.0
  9
$UCSXDIR
 10
1.0
 20
0.0
 30
0.0
  9
$UCSYDIR
 10
0.0
 20
1.0
 30
0.0
  9
$USERI1
 70
     0
  9
$USERI2
 70
     0
  9
$USERI3
 70
     0
  9
$USERI4
 70
     0
  9
$USERI5
 70
     0
  9
$USERR1
 40
0.0
  9
$USERR2
 40
0.0
  9
$USERR3
 40
0.0
  9
$USERR4
 40
0.0
  9
$USERR5
 40
0.0
  9
$WORLDVIEW
 70
     1
  0
ENDSEC
  0
SECTION
  2
TABLES
  0
TABLE
  2
VPORT
 70
     1
  0
VPORT
  2
*ACTIVE
 70
     0
 10
0.0
 20
0.0
 11
1.0
 21
1.0
 12
4.243863627030163
 22
24.06506389659679
 13
0.0
 23
0.0
 14
0.5
 24
0.5
 15
0.5
 25
0.5
 16
0.0
 26
0.0
 36
1.0
 17
0.0
 27
0.0
 37
0.0
 40
62.70076336523758
 41
1.701534170153416
 42
50.0
 43
0.0
 44
0.0
 50
0.0
 51
0.0
 71
    16
 72
  1000
 73
     1
 74
     3
 75
     0
 76
     0
 77
     0
 78
     0
  0
ENDTAB
  0
TABLE
  2
LTYPE
 70
     1
  0
LTYPE
  2
CONTINUOUS
 70
     0
  3
Solid line
 72
    65
 73
     0
 40
0.0
  0
ENDTAB
  0
TABLE
  2
LAYER
 70
     2
  0
LAYER
  2
0
 70
     0
 62
     7
  6
CONTINUOUS
  0
LAYER
  2
DEFPOINTS
 70
     0
 62
     7
  6
CONTINUOUS
  0
ENDTAB
  0
TABLE
  2
STYLE
 70
     2
  0
STYLE
  2
STANDARD
 70
     0
 40
0.0
 41
1.0
 50
0.0
 71
     0
 42
0.2
  3
IC-txt.shx
  4

  0
STYLE
  2
돋움
 70
     0
 40
0.0
 41
1.0
 50
0.0
 71
     0
 42
0.2
  3
Dotum.ttf
  4

  0
ENDTAB
  0
TABLE
  2
VIEW
 70
     0
  0
ENDTAB
  0
TABLE
  2
UCS
 70
     0
  0
ENDTAB
  0
ENDSEC
  0
SECTION
  2
BLOCKS
  0
BLOCK
  8
0
  2
*D1
 70
     1
 10
0.0
 20
0.0
 30
0.0
  0
POINT
  5
190D
  8
DEFPOINTS
  6
BYBLOCK
 62
     3
 10
-2.0
 20
49.5
 30
0.0
  0
POINT
  5
190E
  8
DEFPOINTS
  6
BYBLOCK
 62
     3
 10
2.0
 20
49.5
 30
0.0
  0
LINE
  5
190F
  8
0
  6
BYBLOCK
 62
     3
 10
-2.0
 20
50.0
 30
0.0
 11
-2.0
 21
53.1020365607158
 31
0.0
  0
LINE
  5
1910
  8
0
  6
BYBLOCK
 62
     3
 10
2.0
 20
50.0
 30
0.0
 11
2.0
 21
53.1020365607158
 31
0.0
  0
LINE
  5
1911
  8
0
  6
BYBLOCK
 62
     3
 10
-2.0
 20
52.6020365607158
 30
0.0
 11
2.0
 21
52.6020365607158
 31
0.0
  0
SOLID
  5
1912
  8
0
  6
BYBLOCK
 62
     3
 10
-2.0
 20
52.6020365607158
 30
0.0
 11
-0.5
 21
52.35203656071575
 31
0.0
 12
-0.5
 22
52.85203656071585
 32
0.0
 13
-0.5
 23
52.85203656071585
 33
0.0
  0
SOLID
  5
1913
  8
0
  6
BYBLOCK
 62
     3
 10
2.0
 20
52.6020365607158
 30
0.0
 11
0.5
 21
52.35203656071575
 31
0.0
 12
0.5
 22
52.85203656071585
 32
0.0
 13
0.5
 23
52.85203656071585
 33
0.0
  0
INSERT
  5
1914
  8
0
  6
BYBLOCK
 62
     3
  2
*X7
 10
0.0
 20
0.0
 30
0.0
  0
ENDBLK
  8
0
  0
BLOCK
  8
0
  2
*D3
 70
     1
 10
0.0
 20
0.0
 30
0.0
  0
POINT
  5
1FE7
  8
DEFPOINTS
  6
BYBLOCK
 62
     3
 10
1.5
 20
50.0
 30
0.0
  0
POINT
  5
1FE8
  8
DEFPOINTS
  6
BYBLOCK
 62
     3
 10
0.5
 20
0.000000000000007
 30
0.0
  0
LINE
  5
1FE9
  8
0
  6
BYBLOCK
 62
     3
 10
2.0
 20
50.0
 30
0.0
 11
18.07795858031444
 21
50.0
 31
0.0
  0
LINE
  5
1FEA
  8
0
  6
BYBLOCK
 62
     3
 10
1.0
 20
0.0000000000000071
 30
0.0
 11
18.07795858031444
 21
0.0000000000000071
 31
0.0
  0
LINE
  5
1FEB
  8
0
  6
BYBLOCK
 62
     3
 10
17.57795858031444
 20
50.0
 30
0.0
 11
17.57795858031444
 21
0.0000000000000071
 31
0.0
  0
SOLID
  5
1FEC
  8
0
  6
BYBLOCK
 62
     3
 10
17.57795858031444
 20
50.0
 30
0.0
 11
17.32795858031439
 21
48.5
 31
0.0
 12
17.82795858031449
 22
48.5
 32
0.0
 13
17.82795858031449
 23
48.5
 33
0.0
  0
SOLID
  5
1FED
  8
0
  6
BYBLOCK
 62
     3
 10
17.57795858031444
 20
0.0000000000000071
 30
0.0
 11
17.32795858031439
 21
1.500000000000007
 31
0.0
 12
17.82795858031449
 22
1.500000000000007
 32
0.0
 13
17.82795858031449
 23
1.500000000000007
 33
0.0
  0
TEXT
  5
1FEE
  8
0
  6
CONTINUOUS
 62
     3
 10
17.48388249335792
 20
23.38095238095239
 30
0.0
 40
2.0
  1
50
 50
90.0
  7
돋움
  0
ENDBLK
  8
0
  0
BLOCK
  8
0
  2
*D4
 70
     1
 10
0.0
 20
0.0
 30
0.0
  0
POINT
  5
1F10
  8
DEFPOINTS
  6
BYBLOCK
 62
     3
 10
-0.7500000000000018
 20
-0.0000000000000016
 30
0.0
  0
POINT
  5
1F11
  8
DEFPOINTS
  6
BYBLOCK
 62
     3
 10
0.7500000000000018
 20
0.0000000000000087
 30
0.0
  0
LINE
  5
1F12
  8
0
  6
BYBLOCK
 62
     3
 10
-0.7500000000000018
 20
-0.5000000000000016
 30
0.0
 11
-0.7500000000000018
 21
-6.670604419696141
 31
0.0
  0
LINE
  5
1F13
  8
0
  6
BYBLOCK
 62
     3
 10
0.7500000000000018
 20
-0.4999999999999913
 30
0.0
 11
0.7500000000000018
 21
-6.670604419696141
 31
0.0
  0
LINE
  5
1F14
  8
0
  6
BYBLOCK
 62
     3
 10
2.250000000000002
 20
-6.170604419696141
 30
0.0
 11
3.750000000000002
 21
-6.170604419696141
 31
0.0
  0
SOLID
  5
1F15
  8
0
  6
BYBLOCK
 62
     3
 10
-0.7500000000000018
 20
-6.170604419696141
 30
0.0
 11
-2.250000000000002
 21
-6.420604419696191
 31
0.0
 12
-2.250000000000002
 22
-5.920604419696091
 32
0.0
 13
-2.250000000000002
 23
-5.920604419696091
 33
0.0
  0
LINE
  5
1F16
  8
0
  6
BYBLOCK
 62
     3
 10
-2.250000000000002
 20
-6.170604419696141
 30
0.0
 11
-9.590231326254111
 21
-6.170604419696141
 31
0.0
  0
SOLID
  5
1F17
  8
0
  6
BYBLOCK
 62
     3
 10
0.7500000000000018
 20
-6.170604419696141
 30
0.0
 11
2.250000000000002
 21
-6.420604419696191
 31
0.0
 12
2.250000000000002
 22
-5.920604419696091
 32
0.0
 13
2.250000000000002
 23
-5.920604419696091
 33
0.0
  0
INSERT
  5
1F18
  8
0
  6
BYBLOCK
 62
     3
  2
*X8
 10
0.0
 20
0.0
 30
0.0
  0
ENDBLK
  8
0
  0
BLOCK
  8
0
  2
*D5
 70
     1
 10
0.0
 20
0.0
 30
0.0
  0
POINT
  5
2052
  8
DEFPOINTS
  6
BYBLOCK
 62
     3
 10
0.6000000000000014
 20
0.000000000000007
 30
0.0
  0
POINT
  5
2053
  8
DEFPOINTS
  6
BYBLOCK
 62
     3
 10
0.6000000000000015
 20
2.5
 30
0.0
  0
LINE
  5
2054
  8
0
  6
BYBLOCK
 62
     3
 10
1.100000000000001
 20
0.000000000000007
 30
0.0
 11
8.788069127984153
 21
0.000000000000007
 31
0.0
  0
LINE
  5
2055
  8
0
  6
BYBLOCK
 62
     3
 10
1.100000000000001
 20
2.5
 30
0.0
 11
8.788069127984153
 21
2.5
 31
0.0
  0
LINE
  5
2056
  8
0
  6
BYBLOCK
 62
     3
 10
8.288069127984153
 20
4.0
 30
0.0
 11
8.288069127984153
 21
5.5
 31
0.0
  0
SOLID
  5
2057
  8
0
  6
BYBLOCK
 62
     3
 10
8.288069127984153
 20
0.000000000000007
 30
0.0
 11
8.538069127984203
 21
-1.499999999999993
 31
0.0
 12
8.038069127984103
 22
-1.499999999999993
 32
0.0
 13
8.038069127984103
 23
-1.499999999999993
 33
0.0
  0
LINE
  5
2058
  8
0
  6
BYBLOCK
 62
     3
 10
8.288069127984153
 20
-1.499999999999993
 30
0.0
 11
8.288069127984153
 21
-6.449289775676926
 31
0.0
  0
SOLID
  5
2059
  8
0
  6
BYBLOCK
 62
     3
 10
8.288069127984153
 20
2.5
 30
0.0
 11
8.538069127984203
 21
4.0
 31
0.0
 12
8.038069127984103
 22
4.0
 32
0.0
 13
8.038069127984103
 23
4.0
 33
0.0
  0
TEXT
  5
205A
  8
0
  6
CONTINUOUS
 62
     3
 10
8.193993041027632
 20
-6.397462653523718
 30
0.0
 40
2.0
  1
2.5
 50
90.0
  7
돋움
  0
ENDBLK
  8
0
  0
BLOCK
  8
0
  2
*D6
 70
     1
 10
0.0
 20
0.0
 30
0.0
  0
POINT
  5
2063
  8
DEFPOINTS
  6
BYBLOCK
 62
     3
 10
0.6000000000000014
 20
0.000000000000007
 30
0.0
  0
POINT
  5
2064
  8
DEFPOINTS
  6
BYBLOCK
 62
     3
 10
0.6000000000000015
 20
8.0
 30
0.0
  0
LINE
  5
2065
  8
0
  6
BYBLOCK
 62
     3
 10
1.100000000000001
 20
0.000000000000007
 30
0.0
 11
14.62941102313751
 21
0.000000000000007
 31
0.0
  0
LINE
  5
2066
  8
0
  6
BYBLOCK
 62
     3
 10
1.100000000000001
 20
8.0
 30
0.0
 11
14.62941102313751
 21
8.0
 31
0.0
  0
LINE
  5
2067
  8
0
  6
BYBLOCK
 62
     3
 10
14.12941102313751
 20
0.000000000000007
 30
0.0
 11
14.12941102313751
 21
8.0
 31
0.0
  0
SOLID
  5
2068
  8
0
  6
BYBLOCK
 62
     3
 10
14.12941102313751
 20
0.000000000000007
 30
0.0
 11
14.37941102313756
 21
1.500000000000007
 31
0.0
 12
13.87941102313746
 22
1.500000000000007
 32
0.0
 13
13.87941102313746
 23
1.500000000000007
 33
0.0
  0
SOLID
  5
2069
  8
0
  6
BYBLOCK
 62
     3
 10
14.12941102313751
 20
8.0
 30
0.0
 11
14.37941102313756
 21
6.5
 31
0.0
 12
13.87941102313746
 22
6.5
 32
0.0
 13
13.87941102313746
 23
6.5
 33
0.0
  0
TEXT
  5
206A
  8
0
  6
CONTINUOUS
 62
     3
 10
14.03533493618099
 20
2.333333333333337
 30
0.0
 40
2.0
  1
8
 50
90.0
  7
돋움
  0
ENDBLK
  8
0
  0
BLOCK
  8
0
  2
*X7
 70
     1
 10
0.0
 20
0.0
 30
0.0
  0
TEXT
  5
20A1
  8
0
  6
CONTINUOUS
 62
     3
 10
-1.949728545590945
 20
52.74638438680276
 30
0.0
 40
2.0
  1
\U+2205
  7
돋움
  0
TEXT
  5
20A2
  8
0
  6
CONTINUOUS
 62
     3
 10
-0.1402047360671352
 20
52.74638438680276
 30
0.0
 40
2.0
  1
4
  7
돋움
  0
ENDBLK
  8
0
  0
BLOCK
  8
0
  2
*X8
 70
     1
 10
0.0
 20
0.0
 30
0.0
  0
TEXT
  5
20A4
  8
0
  6
CONTINUOUS
 62
     3
 10
-9.235026874908355
 20
-6.026256593609185
 30
0.0
 40
2.0
  1
\U+2205
  7
돋움
  0
TEXT
  5
20A5
  8
0
  6
CONTINUOUS
 62
     3
 10
-7.425503065384546
 20
-6.026256593609185
 30
0.0
 40
2.0
  1
1.5
  7
돋움
  0
ENDBLK
  8
0
  0
ENDSEC
  0
SECTION
  2
ENTITIES
  0
LINE
  5
394
  8
0
 10
-1.5
 20
50.0
 30
0.0
 11
1.5
 21
50.0
 31
0.0
  0
LINE
  5
398
  8
0
 10
-2.0
 20
12.66506350946109
 30
0.0
 11
-2.0
 21
49.5
 31
0.0
  0
LINE
  5
399
  8
0
 10
2.0
 20
12.66506350946108
 30
0.0
 11
2.0
 21
49.5
 31
0.0
  0
LINE
  5
39A
  8
0
 10
0.7500000000000019
 20
8.0
 30
0.0
 11
2.0
 21
12.66506350946108
 31
0.0
  0
LINE
  5
39B
  8
0
 10
-0.7500000000000017
 20
8.0
 30
0.0
 11
-2.0
 21
12.66506350946109
 31
0.0
  0
LINE
  5
39C
  8
0
 10
-2.0
 20
49.5
 30
0.0
 11
2.0
 21
49.5
 31
0.0
  0
LINE
  5
39D
  8
0
 10
-2.0
 20
49.5
 30
0.0
 11
-1.5
 21
50.0
 31
0.0
  0
LINE
  5
39E
  8
0
 10
2.0
 20
49.5
 30
0.0
 11
1.5
 21
50.0
 31
0.0
  0
DIMENSION
  5
39F
  8
0
  2
*D1
 10
2.0
 20
52.6020365607158
 30
0.0
 11
-0.3306809265433256
 21
52.6020365607158
 31
0.0
 70
   160
  1
%%c<>
 13
-2.0
 23
49.5
 33
0.0
 14
2.0
 24
49.5
 34
0.0
  0
DIMENSION
  5
89F
  8
0
  2
*D3
 10
17.57795858031444
 20
0.0000000000000059
 30
0.0
 11
16.48388249335792
 21
25.0
 31
0.0
 70
    32
 13
1.5
 23
50.0
 33
0.0
 14
0.5
 24
0.000000000000007
 34
0.0
 50
90.0
  0
LINE
  5
1836
  8
0
 10
-0.7500000000000018
 20
-0.0000000000000016
 30
0.0
 11
-0.7500000000000017
 21
8.0
 31
0.0
  0
LINE
  5
183B
  8
0
 10
0.7500000000000018
 20
0.0000000000000087
 30
0.0
 11
0.7500000000000019
 21
8.0
 31
0.0
  0
LINE
  5
1932
  8
0
 10
-0.7500000000000018
 20
-0.0000000000000016
 30
0.0
 11
0.7500000000000018
 21
0.0000000000000087
 31
0.0
  0
LINE
  5
1943
  8
0
  6
BYBLOCK
 62
     3
 10
0.0499999999999989
 20
0.0
 30
0.0
 11
0.0499999999999989
 21
0.0
 31
0.0
  0
LINE
  5
1944
  8
0
  6
BYBLOCK
 62
     3
 10
0.0499999999999989
 20
0.0
 30
0.0
 11
0.0499999999999989
 21
0.0
 31
0.0
  0
DIMENSION
  5
19A3
  8
0
  2
*D4
 10
0.7500000000000018
 20
-6.170604419696141
 30
0.0
 11
-6.425503065384546
 21
-6.170604419696141
 31
0.0
 70
   160
  1
%%C<>
 13
-0.7500000000000018
 23
-0.0000000000000016
 33
0.0
 14
0.7500000000000018
 24
0.0000000000000087
 34
0.0
  0
DIMENSION
  5
1A11
  8
0
  2
*D5
 10
8.288069127984153
 20
2.5
 30
0.0
 11
8.288069127984153
 21
-4.302224558285622
 31
0.0
 70
   160
 13
0.6000000000000014
 23
0.000000000000007
 33
0.0
 14
0.6000000000000015
 24
2.5
 34
0.0
 50
90.0
  0
DIMENSION
  5
1D7F
  8
0
  2
*D6
 10
14.12941102313751
 20
8.0
 30
0.0
 11
14.12941102313751
 21
3.000000000000004
 31
0.0
 70
   160
 13
0.6000000000000014
 23
0.000000000000007
 33
0.0
 14
0.6000000000000015
 24
8.0
 34
0.0
 50
90.0
  0
ENDSEC
  0
EOF
