  0
SECTION
  2
HEADER
  9
$ACADVER
  1
AC1006
  9
$DWGCODEPAGE
  3
ansi_949
  9
$INSBASE
 10
0.0
 20
0.0
 30
0.0
  9
$EXTMIN
 10
-5.0
 20
-8.222296414263436
  9
$EXTMAX
 10
22.94084965412279
 20
104.8007322128897
  9
$LIMMIN
 10
0.0
 20
0.0
  9
$LIMMAX
 10
12.0
 20
9.0
  9
$ORTHOMODE
 70
     1
  9
$REGENMODE
 70
     1
  9
$FILLMODE
 70
     1
  9
$QTEXTMODE
 70
     0
  9
$MIRRTEXT
 70
     0
  9
$DRAGMODE
 70
     2
  9
$LTSCALE
 40
1.0
  9
$OSMODE
 70
    37
  9
$ATTMODE
 70
     1
  9
$TEXTSIZE
 40
0.2
  9
$TRACEWID
 40
0.05
  9
$TEXTSTYLE
  7
STANDARD
  9
$CLAYER
  8
0
  9
$CELTYPE
  6
BYLAYER
  9
$CECOLOR
 62
   256
  9
$DIMSCALE
 40
1.0
  9
$DIMASZ
 40
1.5
  9
$DIMEXO
 40
0.5
  9
$DIMDLI
 40
2.0
  9
$DIMRND
 40
0.0
  9
$DIMDLE
 40
0.0
  9
$DIMEXE
 40
0.5
  9
$DIMTP
 40
0.0
  9
$DIMTM
 40
0.0
  9
$DIMTXT
 40
2.0
  9
$DIMCEN
 40
0.0
  9
$DIMTSZ
 40
0.0
  9
$DIMTOL
 70
     0
  9
$DIMLIM
 70
     0
  9
$DIMTIH
 70
     0
  9
$DIMTOH
 70
     0
  9
$DIMSE1
 70
     0
  9
$DIMSE2
 70
     0
  9
$DIMTAD
 70
     1
  9
$DIMZIN
 70
     0
  9
$DIMBLK
  1

  9
$DIMASO
 70
     1
  9
$DIMSHO
 70
     1
  9
$DIMPOST
  1

  9
$DIMAPOST
  1

  9
$DIMALT
 70
     0
  9
$DIMALTD
 70
     2
  9
$DIMALTF
 40
25.4
  9
$DIMLFAC
 40
1.0
  9
$DIMTOFL
 70
     0
  9
$DIMTVP
 40
0.0
  9
$DIMTIX
 70
     0
  9
$DIMSOXD
 70
     0
  9
$DIMSAH
 70
     0
  9
$DIMBLK1
  1

  9
$DIMBLK2
  1

  9
$LUNITS
 70
     2
  9
$LUPREC
 70
     4
  9
$SKETCHINC
 40
0.1
  9
$FILLETRAD
 40
0.0
  9
$AUNITS
 70
     0
  9
$AUPREC
 70
     0
  9
$MENU
  1
.
  9
$ELEVATION
 40
0.0
  9
$THICKNESS
 40
0.0
  9
$LIMCHECK
 70
     0
  9
$CHAMFERA
 40
0.0
  9
$CHAMFERB
 40
0.0
  9
$SKPOLY
 70
     0
  9
$TDCREATE
 40
2453353.842125822
  9
$TDUPDATE
 40
2459506.401645359
  9
$TDINDWG
 40
0.0877176505
  9
$TDUSRTIMER
 40
0.0876829167
  9
$USRTIMER
 70
     1
  9
$ANGBASE
 50
0.0
  9
$ANGDIR
 70
     0
  9
$PDMODE
 70
     0
  9
$PDSIZE
 40
0.0
  9
$PLINEWID
 40
0.0
  9
$COORDS
 70
     1
  9
$SPLFRAME
 70
     0
  9
$SPLINETYPE
 70
     6
  9
$SPLINESEGS
 70
     8
  9
$ATTDIA
 70
     0
  9
$ATTREQ
 70
     1
  9
$HANDLING
 70
     1
  9
$HANDSEED
  5
3283
  9
$SURFTAB1
 70
     6
  9
$SURFTAB2
 70
     6
  9
$SURFTYPE
 70
     6
  9
$SURFU
 70
     6
  9
$SURFV
 70
     6
  9
$UCSNAME
  2

  9
$UCSORG
 10
0.0
 20
0.0
 30
0.0
  9
$UCSXDIR
 10
1.0
 20
0.0
 30
0.0
  9
$UCSYDIR
 10
0.0
 20
1.0
 30
0.0
  9
$USERI1
 70
     0
  9
$USERI2
 70
     0
  9
$USERI3
 70
     0
  9
$USERI4
 70
     0
  9
$USERI5
 70
     0
  9
$USERR1
 40
0.0
  9
$USERR2
 40
0.0
  9
$USERR3
 40
0.0
  9
$USERR4
 40
0.0
  9
$USERR5
 40
0.0
  9
$WORLDVIEW
 70
     1
  0
ENDSEC
  0
SECTION
  2
TABLES
  0
TABLE
  2
VPORT
 70
     1
  0
VPORT
  2
*ACTIVE
 70
     0
 10
0.0
 20
0.0
 11
1.0
 21
1.0
 12
8.970424827061393
 22
48.28921789931314
 13
0.0
 23
0.0
 14
0.5
 24
0.5
 15
0.5
 25
0.5
 16
0.0
 26
0.0
 36
1.0
 17
0.0
 27
0.0
 37
0.0
 40
115.2834891996962
 41
1.701534170153416
 42
50.0
 43
0.0
 44
0.0
 50
0.0
 51
0.0
 71
    16
 72
  1000
 73
     1
 74
     3
 75
     0
 76
     0
 77
     0
 78
     0
  0
ENDTAB
  0
TABLE
  2
LTYPE
 70
     1
  0
LTYPE
  2
CONTINUOUS
 70
     0
  3
Solid line
 72
    65
 73
     0
 40
0.0
  0
ENDTAB
  0
TABLE
  2
LAYER
 70
     2
  0
LAYER
  2
0
 70
     0
 62
     7
  6
CONTINUOUS
  0
LAYER
  2
DEFPOINTS
 70
     0
 62
     7
  6
CONTINUOUS
  0
ENDTAB
  0
TABLE
  2
STYLE
 70
     2
  0
STYLE
  2
STANDARD
 70
     0
 40
0.0
 41
1.0
 50
0.0
 71
     0
 42
0.2
  3
IC-txt.shx
  4

  0
STYLE
  2
돋움
 70
     0
 40
0.0
 41
1.0
 50
0.0
 71
     0
 42
0.2
  3
Dotum.ttf
  4

  0
ENDTAB
  0
TABLE
  2
VIEW
 70
     0
  0
ENDTAB
  0
TABLE
  2
UCS
 70
     0
  0
ENDTAB
  0
ENDSEC
  0
SECTION
  2
BLOCKS
  0
BLOCK
  8
0
  2
*D1
 70
     1
 10
0.0
 20
0.0
 30
0.0
  0
POINT
  5
322E
  8
DEFPOINTS
  6
BYBLOCK
 62
     3
 10
-5.0
 20
99.5
 30
0.0
  0
POINT
  5
322F
  8
DEFPOINTS
  6
BYBLOCK
 62
     3
 10
5.0
 20
99.5
 30
0.0
  0
LINE
  5
3230
  8
0
  6
BYBLOCK
 62
     3
 10
-5.0
 20
100.0
 30
0.0
 11
-5.0
 21
103.1020365607158
 31
0.0
  0
LINE
  5
3231
  8
0
  6
BYBLOCK
 62
     3
 10
5.0
 20
100.0
 30
0.0
 11
5.0
 21
103.1020365607158
 31
0.0
  0
LINE
  5
3232
  8
0
  6
BYBLOCK
 62
     3
 10
-5.0
 20
102.6020365607158
 30
0.0
 11
5.0
 21
102.6020365607158
 31
0.0
  0
SOLID
  5
3233
  8
0
  6
BYBLOCK
 62
     3
 10
-5.0
 20
102.6020365607158
 30
0.0
 11
-3.5
 21
102.3520365607158
 31
0.0
 12
-3.5
 22
102.8520365607159
 32
0.0
 13
-3.5
 23
102.8520365607159
 33
0.0
  0
SOLID
  5
3234
  8
0
  6
BYBLOCK
 62
     3
 10
5.0
 20
102.6020365607158
 30
0.0
 11
3.5
 21
102.3520365607158
 31
0.0
 12
3.5
 22
102.8520365607159
 32
0.0
 13
3.5
 23
102.8520365607159
 33
0.0
  0
INSERT
  5
3235
  8
0
  6
BYBLOCK
 62
     3
  2
*X6
 10
0.0
 20
0.0
 30
0.0
  0
ENDBLK
  8
0
  0
BLOCK
  8
0
  2
*D2
 70
     1
 10
0.0
 20
0.0
 30
0.0
  0
POINT
  5
323E
  8
DEFPOINTS
  6
BYBLOCK
 62
     3
 10
4.5
 20
100.0
 30
0.0
  0
POINT
  5
323F
  8
DEFPOINTS
  6
BYBLOCK
 62
     3
 10
4.750000000000002
 20
0.0000000000000142
 30
0.0
  0
LINE
  5
3240
  8
0
  6
BYBLOCK
 62
     3
 10
5.0
 20
100.0
 30
0.0
 11
22.94084965412279
 21
100.0
 31
0.0
  0
LINE
  5
3241
  8
0
  6
BYBLOCK
 62
     3
 10
5.250000000000002
 20
0.0000000000000142
 30
0.0
 11
22.94084965412279
 21
0.0000000000000142
 31
0.0
  0
LINE
  5
3242
  8
0
  6
BYBLOCK
 62
     3
 10
22.44084965412279
 20
100.0
 30
0.0
 11
22.44084965412279
 21
0.0000000000000142
 31
0.0
  0
SOLID
  5
3243
  8
0
  6
BYBLOCK
 62
     3
 10
22.44084965412279
 20
100.0
 30
0.0
 11
22.19084965412274
 21
98.5
 31
0.0
 12
22.69084965412284
 22
98.5
 32
0.0
 13
22.69084965412284
 23
98.5
 33
0.0
  0
SOLID
  5
3244
  8
0
  6
BYBLOCK
 62
     3
 10
22.44084965412279
 20
0.0000000000000142
 30
0.0
 11
22.19084965412274
 21
1.500000000000014
 31
0.0
 12
22.69084965412284
 22
1.500000000000014
 32
0.0
 13
22.69084965412284
 23
1.500000000000014
 33
0.0
  0
TEXT
  5
3245
  8
0
  6
CONTINUOUS
 62
     3
 10
22.34677356716626
 20
47.61904761904763
 30
0.0
 40
2.0
  1
100
 50
90.0
  7
돋움
  0
ENDBLK
  8
0
  0
BLOCK
  8
0
  2
*D3
 70
     1
 10
0.0
 20
0.0
 30
0.0
  0
POINT
  5
31BE
  8
DEFPOINTS
  6
BYBLOCK
 62
     3
 10
4.991587033147367
 20
0.0000000000000142
 30
0.0
  0
POINT
  5
31BF
  8
DEFPOINTS
  6
BYBLOCK
 62
     3
 10
4.962278154851564
 20
15.0
 30
0.0
  0
LINE
  5
31C0
  8
0
  6
BYBLOCK
 62
     3
 10
5.491587033147367
 20
0.0000000000000142
 30
0.0
 11
12.78787533185205
 21
0.0000000000000142
 31
0.0
  0
LINE
  5
31C1
  8
0
  6
BYBLOCK
 62
     3
 10
5.462278154851564
 20
15.0
 30
0.0
 11
12.78787533185205
 21
15.0
 31
0.0
  0
LINE
  5
31C2
  8
0
  6
BYBLOCK
 62
     3
 10
12.28787533185205
 20
0.0000000000000142
 30
0.0
 11
12.28787533185205
 21
15.0
 31
0.0
  0
SOLID
  5
31C3
  8
0
  6
BYBLOCK
 62
     3
 10
12.28787533185205
 20
0.0000000000000142
 30
0.0
 11
12.5378753318521
 21
1.500000000000014
 31
0.0
 12
12.03787533185201
 22
1.500000000000014
 32
0.0
 13
12.03787533185201
 23
1.500000000000014
 33
0.0
  0
SOLID
  5
31C4
  8
0
  6
BYBLOCK
 62
     3
 10
12.28787533185205
 20
15.0
 30
0.0
 11
12.5378753318521
 21
13.5
 31
0.0
 12
12.03787533185201
 22
13.5
 32
0.0
 13
12.03787533185201
 23
13.5
 33
0.0
  0
TEXT
  5
31C5
  8
0
  6
CONTINUOUS
 62
     3
 10
12.19379924489553
 20
3.071428571428575
 30
0.0
 40
2.0
  1
15
 50
90.0
  7
돋움
  0
ENDBLK
  8
0
  0
BLOCK
  8
0
  2
*D4
 70
     1
 10
0.0
 20
0.0
 30
0.0
  0
POINT
  5
318E
  8
DEFPOINTS
  6
BYBLOCK
 62
     3
 10
-5.0
 20
-0.0000000000000079
 30
0.0
  0
POINT
  5
318F
  8
DEFPOINTS
  6
BYBLOCK
 62
     3
 10
4.999999999999996
 20
0.0000000000000071
 30
0.0
  0
LINE
  5
3190
  8
0
  6
BYBLOCK
 62
     3
 10
-5.0
 20
-0.5000000000000079
 30
0.0
 11
-5.0
 21
-8.222296414263436
 31
0.0
  0
LINE
  5
3191
  8
0
  6
BYBLOCK
 62
     3
 10
4.999999999999996
 20
-0.4999999999999929
 30
0.0
 11
4.999999999999996
 21
-8.222296414263436
 31
0.0
  0
LINE
  5
3192
  8
0
  6
BYBLOCK
 62
     3
 10
-5.0
 20
-7.722296414263438
 30
0.0
 11
4.999999999999996
 21
-7.722296414263438
 31
0.0
  0
SOLID
  5
3193
  8
0
  6
BYBLOCK
 62
     3
 10
-5.0
 20
-7.722296414263438
 30
0.0
 11
-3.5
 21
-7.972296414263488
 31
0.0
 12
-3.5
 22
-7.472296414263388
 32
0.0
 13
-3.5
 23
-7.472296414263388
 33
0.0
  0
SOLID
  5
3194
  8
0
  6
BYBLOCK
 62
     3
 10
4.999999999999996
 20
-7.722296414263438
 30
0.0
 11
3.499999999999996
 21
-7.972296414263488
 31
0.0
 12
3.499999999999996
 22
-7.472296414263388
 32
0.0
 13
3.499999999999996
 23
-7.472296414263388
 33
0.0
  0
INSERT
  5
3195
  8
0
  6
BYBLOCK
 62
     3
  2
*X7
 10
0.0
 20
0.0
 30
0.0
  0
ENDBLK
  8
0
  0
BLOCK
  8
0
  2
*D5
 70
     1
 10
0.0
 20
0.0
 30
0.0
  0
POINT
  5
321E
  8
DEFPOINTS
  6
BYBLOCK
 62
     3
 10
4.999999999999996
 20
0.0000000000000071
 30
0.0
  0
POINT
  5
321F
  8
DEFPOINTS
  6
BYBLOCK
 62
     3
 10
4.999999999999998
 20
50.0
 30
0.0
  0
LINE
  5
3220
  8
0
  6
BYBLOCK
 62
     3
 10
5.499999999999996
 20
0.0000000000000071
 30
0.0
 11
18.01273859711608
 21
0.0000000000000071
 31
0.0
  0
LINE
  5
3221
  8
0
  6
BYBLOCK
 62
     3
 10
5.499999999999998
 20
50.0
 30
0.0
 11
18.01273859711608
 21
50.0
 31
0.0
  0
LINE
  5
3222
  8
0
  6
BYBLOCK
 62
     3
 10
17.51273859711608
 20
0.0000000000000071
 30
0.0
 11
17.51273859711608
 21
50.0
 31
0.0
  0
SOLID
  5
3223
  8
0
  6
BYBLOCK
 62
     3
 10
17.51273859711608
 20
0.0000000000000071
 30
0.0
 11
17.76273859711613
 21
1.500000000000007
 31
0.0
 12
17.26273859711603
 22
1.500000000000007
 32
0.0
 13
17.26273859711603
 23
1.500000000000007
 33
0.0
  0
SOLID
  5
3224
  8
0
  6
BYBLOCK
 62
     3
 10
17.51273859711608
 20
50.0
 30
0.0
 11
17.76273859711613
 21
48.5
 31
0.0
 12
17.26273859711603
 22
48.5
 32
0.0
 13
17.26273859711603
 23
48.5
 33
0.0
  0
TEXT
  5
3225
  8
0
  6
CONTINUOUS
 62
     3
 10
17.41866251015956
 20
23.38095238095239
 30
0.0
 40
2.0
  1
50
 50
90.0
  7
돋움
  0
ENDBLK
  8
0
  0
BLOCK
  8
0
  2
*X6
 70
     1
 10
0.0
 20
0.0
 30
0.0
  0
TEXT
  5
327A
  8
0
  6
CONTINUOUS
 62
     3
 10
-2.333333333333333
 20
102.7463843868028
 30
0.0
 40
2.0
  1
\U+2205
  7
돋움
  0
TEXT
  5
327B
  8
0
  6
CONTINUOUS
 62
     3
 10
-0.5238095238095237
 20
102.7463843868028
 30
0.0
 40
2.0
  1
10
  7
돋움
  0
ENDBLK
  8
0
  0
BLOCK
  8
0
  2
*X7
 70
     1
 10
0.0
 20
0.0
 30
0.0
  0
TEXT
  5
327D
  8
0
  6
CONTINUOUS
 62
     3
 10
-2.333333333333335
 20
-7.577948588176482
 30
0.0
 40
2.0
  1
\U+2205
  7
돋움
  0
TEXT
  5
327E
  8
0
  6
CONTINUOUS
 62
     3
 10
-0.5238095238095255
 20
-7.577948588176482
 30
0.0
 40
2.0
  1
10
  7
돋움
  0
ENDBLK
  8
0
  0
ENDSEC
  0
SECTION
  2
ENTITIES
  0
LINE
  5
394
  8
0
 10
-4.5
 20
100.0
 30
0.0
 11
4.5
 21
100.0
 31
0.0
  0
LINE
  5
398
  8
0
 10
-5.0
 20
-0.0000000000000079
 30
0.0
 11
-5.0
 21
99.5
 31
0.0
  0
LINE
  5
399
  8
0
 10
5.0
 20
0.000000000000015
 30
0.0
 11
5.0
 21
99.5
 31
0.0
  0
LINE
  5
39C
  8
0
 10
-5.0
 20
99.5
 30
0.0
 11
5.0
 21
99.5
 31
0.0
  0
LINE
  5
39D
  8
0
 10
-5.0
 20
99.5
 30
0.0
 11
-4.5
 21
100.0
 31
0.0
  0
LINE
  5
39E
  8
0
 10
5.0
 20
99.5
 30
0.0
 11
4.5
 21
100.0
 31
0.0
  0
DIMENSION
  5
39F
  8
0
  2
*D1
 10
5.0
 20
102.6020365607158
 30
0.0
 11
0.0
 21
102.6020365607158
 31
0.0
 70
   160
  1
%%c<>
 13
-5.0
 23
99.5
 33
0.0
 14
5.0
 24
99.5
 34
0.0
  0
DIMENSION
  5
89F
  8
0
  2
*D2
 10
22.44084965412279
 20
0.0000000000000131
 30
0.0
 11
21.34677356716626
 21
50.00000000000001
 31
0.0
 70
    32
 13
4.5
 23
100.0
 33
0.0
 14
4.750000000000002
 24
0.0000000000000142
 34
0.0
 50
90.0
  0
LINE
  5
1932
  8
0
 10
-5.0
 20
-0.0000000000000079
 30
0.0
 11
5.0
 21
0.000000000000015
 31
0.0
  0
LINE
  5
1943
  8
0
  6
BYBLOCK
 62
     3
 10
1.549999999999995
 20
0.0
 30
0.0
 11
1.549999999999995
 21
0.0
 31
0.0
  0
LINE
  5
1944
  8
0
  6
BYBLOCK
 62
     3
 10
1.549999999999995
 20
0.0
 30
0.0
 11
1.549999999999995
 21
0.0
 31
0.0
  0
DIMENSION
  5
1A11
  8
0
  2
*D3
 10
12.28787533185205
 20
15.0
 30
0.0
 11
12.28787533185205
 21
4.500000000000004
 31
0.0
 70
   160
 13
4.991587033147367
 23
0.0000000000000142
 33
0.0
 14
4.962278154851564
 24
15.0
 34
0.0
 50
90.0
  0
DIMENSION
  5
22BC
  8
0
  2
*D4
 10
4.999999999999996
 20
-7.722296414263438
 30
0.0
 11
-0.0000000000000018
 21
-7.722296414263438
 31
0.0
 70
   160
  1
%%C<>
 13
-5.0
 23
-0.0000000000000079
 33
0.0
 14
4.999999999999996
 24
0.0000000000000071
 34
0.0
  0
DIMENSION
  5
2395
  8
0
  2
*D5
 10
17.51273859711608
 20
50.0
 30
0.0
 11
16.41866251015956
 21
25.0
 31
0.0
 70
    32
 13
4.999999999999996
 23
0.0000000000000071
 33
0.0
 14
4.999999999999998
 24
50.0
 34
0.0
 50
90.0
  0
ENDSEC
  0
EOF
