  0
SECTION
  2
HEADER
  9
$ACADVER
  1
AC1006
  9
$DWGCODEPAGE
  3
ansi_949
  9
$INSBASE
 10
0.0
 20
0.0
 30
0.0
  9
$EXTMIN
 10
-8.0
 20
-8.222296414263436
  9
$EXTMAX
 10
28.51485721839547
 20
138.7517236864318
  9
$LIMMIN
 10
0.0
 20
0.0
  9
$LIMMAX
 10
12.0
 20
9.0
  9
$ORTHOMODE
 70
     1
  9
$REGENMODE
 70
     1
  9
$FILLMODE
 70
     1
  9
$QTEXTMODE
 70
     0
  9
$MIRRTEXT
 70
     0
  9
$DRAGMODE
 70
     2
  9
$LTSCALE
 40
1.0
  9
$OSMODE
 70
    37
  9
$ATTMODE
 70
     1
  9
$TEXTSIZE
 40
0.2
  9
$TRACEWID
 40
0.05
  9
$TEXTSTYLE
  7
STANDARD
  9
$CLAYER
  8
0
  9
$CELTYPE
  6
BYLAYER
  9
$CECOLOR
 62
   256
  9
$DIMSCALE
 40
1.0
  9
$DIMASZ
 40
1.5
  9
$DIMEXO
 40
0.5
  9
$DIMDLI
 40
2.0
  9
$DIMRND
 40
0.0
  9
$DIMDLE
 40
0.0
  9
$DIMEXE
 40
0.5
  9
$DIMTP
 40
0.0
  9
$DIMTM
 40
0.0
  9
$DIMTXT
 40
2.0
  9
$DIMCEN
 40
0.0
  9
$DIMTSZ
 40
0.0
  9
$DIMTOL
 70
     0
  9
$DIMLIM
 70
     0
  9
$DIMTIH
 70
     0
  9
$DIMTOH
 70
     0
  9
$DIMSE1
 70
     0
  9
$DIMSE2
 70
     0
  9
$DIMTAD
 70
     1
  9
$DIMZIN
 70
     0
  9
$DIMBLK
  1

  9
$DIMASO
 70
     1
  9
$DIMSHO
 70
     1
  9
$DIMPOST
  1

  9
$DIMAPOST
  1

  9
$DIMALT
 70
     0
  9
$DIMALTD
 70
     2
  9
$DIMALTF
 40
25.4
  9
$DIMLFAC
 40
1.0
  9
$DIMTOFL
 70
     0
  9
$DIMTVP
 40
0.0
  9
$DIMTIX
 70
     0
  9
$DIMSOXD
 70
     0
  9
$DIMSAH
 70
     0
  9
$DIMBLK1
  1

  9
$DIMBLK2
  1

  9
$LUNITS
 70
     2
  9
$LUPREC
 70
     4
  9
$SKETCHINC
 40
0.1
  9
$FILLETRAD
 40
0.0
  9
$AUNITS
 70
     0
  9
$AUPREC
 70
     0
  9
$MENU
  1
.
  9
$ELEVATION
 40
0.0
  9
$THICKNESS
 40
0.0
  9
$LIMCHECK
 70
     0
  9
$CHAMFERA
 40
0.0
  9
$CHAMFERB
 40
0.0
  9
$SKPOLY
 70
     0
  9
$TDCREATE
 40
2453353.842125822
  9
$TDUPDATE
 40
2459506.324998009
  9
$TDINDWG
 40
0.0896273727
  9
$TDUSRTIMER
 40
0.0895926273
  9
$USRTIMER
 70
     1
  9
$ANGBASE
 50
0.0
  9
$ANGDIR
 70
     0
  9
$PDMODE
 70
     0
  9
$PDSIZE
 40
0.0
  9
$PLINEWID
 40
0.0
  9
$COORDS
 70
     1
  9
$SPLFRAME
 70
     0
  9
$SPLINETYPE
 70
     6
  9
$SPLINESEGS
 70
     8
  9
$ATTDIA
 70
     0
  9
$ATTREQ
 70
     1
  9
$HANDLING
 70
     1
  9
$HANDSEED
  5
34EF
  9
$SURFTAB1
 70
     6
  9
$SURFTAB2
 70
     6
  9
$SURFTYPE
 70
     6
  9
$SURFU
 70
     6
  9
$SURFV
 70
     6
  9
$UCSNAME
  2

  9
$UCSORG
 10
0.0
 20
0.0
 30
0.0
  9
$UCSXDIR
 10
1.0
 20
0.0
 30
0.0
  9
$UCSYDIR
 10
0.0
 20
1.0
 30
0.0
  9
$USERI1
 70
     0
  9
$USERI2
 70
     0
  9
$USERI3
 70
     0
  9
$USERI4
 70
     0
  9
$USERI5
 70
     0
  9
$USERR1
 40
0.0
  9
$USERR2
 40
0.0
  9
$USERR3
 40
0.0
  9
$USERR4
 40
0.0
  9
$USERR5
 40
0.0
  9
$WORLDVIEW
 70
     1
  0
ENDSEC
  0
SECTION
  2
TABLES
  0
TABLE
  2
VPORT
 70
     1
  0
VPORT
  2
*ACTIVE
 70
     0
 10
0.0
 20
0.0
 11
1.0
 21
1.0
 12
10.25742860919773
 22
65.26471363608418
 13
0.0
 23
0.0
 14
0.5
 24
0.5
 15
0.5
 25
0.5
 16
0.0
 26
0.0
 36
1.0
 17
0.0
 27
0.0
 37
0.0
 40
149.9135005027092
 41
1.701534170153416
 42
50.0
 43
0.0
 44
0.0
 50
0.0
 51
0.0
 71
    16
 72
  1000
 73
     1
 74
     3
 75
     0
 76
     0
 77
     0
 78
     0
  0
ENDTAB
  0
TABLE
  2
LTYPE
 70
     1
  0
LTYPE
  2
CONTINUOUS
 70
     0
  3
Solid line
 72
    65
 73
     0
 40
0.0
  0
ENDTAB
  0
TABLE
  2
LAYER
 70
     2
  0
LAYER
  2
0
 70
     0
 62
     7
  6
CONTINUOUS
  0
LAYER
  2
DEFPOINTS
 70
     0
 62
     7
  6
CONTINUOUS
  0
ENDTAB
  0
TABLE
  2
STYLE
 70
     2
  0
STYLE
  2
STANDARD
 70
     0
 40
0.0
 41
1.0
 50
0.0
 71
     0
 42
0.2
  3
IC-txt.shx
  4

  0
STYLE
  2
돋움
 70
     0
 40
0.0
 41
1.0
 50
0.0
 71
     0
 42
0.2
  3
Dotum.ttf
  4

  0
ENDTAB
  0
TABLE
  2
VIEW
 70
     0
  0
ENDTAB
  0
TABLE
  2
UCS
 70
     0
  0
ENDTAB
  0
ENDSEC
  0
SECTION
  2
BLOCKS
  0
BLOCK
  8
0
  2
*D1
 70
     1
 10
0.0
 20
0.0
 30
0.0
  0
POINT
  5
348A
  8
DEFPOINTS
  6
BYBLOCK
 62
     3
 10
-8.0
 20
129.5
 30
0.0
  0
POINT
  5
348B
  8
DEFPOINTS
  6
BYBLOCK
 62
     3
 10
8.0
 20
129.5
 30
0.0
  0
LINE
  5
348C
  8
0
  6
BYBLOCK
 62
     3
 10
-8.0
 20
130.0
 30
0.0
 11
-8.0
 21
137.0530280342579
 31
0.0
  0
LINE
  5
348D
  8
0
  6
BYBLOCK
 62
     3
 10
8.0
 20
130.0
 30
0.0
 11
8.0
 21
137.0530280342579
 31
0.0
  0
LINE
  5
348E
  8
0
  6
BYBLOCK
 62
     3
 10
-8.0
 20
136.5530280342579
 30
0.0
 11
8.0
 21
136.5530280342579
 31
0.0
  0
SOLID
  5
348F
  8
0
  6
BYBLOCK
 62
     3
 10
-8.0
 20
136.5530280342579
 30
0.0
 11
-6.5
 21
136.3030280342578
 31
0.0
 12
-6.5
 22
136.8030280342579
 32
0.0
 13
-6.5
 23
136.8030280342579
 33
0.0
  0
SOLID
  5
3490
  8
0
  6
BYBLOCK
 62
     3
 10
8.0
 20
136.5530280342579
 30
0.0
 11
6.5
 21
136.3030280342578
 31
0.0
 12
6.5
 22
136.8030280342579
 32
0.0
 13
6.5
 23
136.8030280342579
 33
0.0
  0
INSERT
  5
3491
  8
0
  6
BYBLOCK
 62
     3
  2
*X6
 10
0.0
 20
0.0
 30
0.0
  0
ENDBLK
  8
0
  0
BLOCK
  8
0
  2
*D2
 70
     1
 10
0.0
 20
0.0
 30
0.0
  0
POINT
  5
34AA
  8
DEFPOINTS
  6
BYBLOCK
 62
     3
 10
7.5
 20
130.0
 30
0.0
  0
POINT
  5
34AB
  8
DEFPOINTS
  6
BYBLOCK
 62
     3
 10
7.750000000000002
 20
0.0000000000000142
 30
0.0
  0
LINE
  5
34AC
  8
0
  6
BYBLOCK
 62
     3
 10
8.0
 20
130.0
 30
0.0
 11
28.51485721839547
 21
130.0
 31
0.0
  0
LINE
  5
34AD
  8
0
  6
BYBLOCK
 62
     3
 10
8.250000000000002
 20
0.0
 30
0.0
 11
28.51485721839547
 21
0.0
 31
0.0
  0
LINE
  5
34AE
  8
0
  6
BYBLOCK
 62
     3
 10
28.01485721839547
 20
130.0
 30
0.0
 11
28.01485721839547
 21
0.0
 31
0.0
  0
SOLID
  5
34AF
  8
0
  6
BYBLOCK
 62
     3
 10
28.01485721839547
 20
130.0
 30
0.0
 11
27.76485721839542
 21
128.5
 31
0.0
 12
28.26485721839552
 22
128.5
 32
0.0
 13
28.26485721839552
 23
128.5
 33
0.0
  0
SOLID
  5
34B0
  8
0
  6
BYBLOCK
 62
     3
 10
28.01485721839547
 20
0.0
 30
0.0
 11
27.76485721839542
 21
1.5
 31
0.0
 12
28.26485721839552
 22
1.5
 32
0.0
 13
28.26485721839552
 23
1.5
 33
0.0
  0
TEXT
  5
34B1
  8
0
  6
CONTINUOUS
 62
     3
 10
27.92078113143894
 20
62.61904761904762
 30
0.0
 40
2.0
  1
130
 50
90.0
  7
돋움
  0
ENDBLK
  8
0
  0
BLOCK
  8
0
  2
*D3
 70
     1
 10
0.0
 20
0.0
 30
0.0
  0
POINT
  5
342A
  8
DEFPOINTS
  6
BYBLOCK
 62
     3
 10
7.991587033147367
 20
0.0000000000000142
 30
0.0
  0
POINT
  5
342B
  8
DEFPOINTS
  6
BYBLOCK
 62
     3
 10
7.962278154851564
 20
24.0
 30
0.0
  0
LINE
  5
342C
  8
0
  6
BYBLOCK
 62
     3
 10
8.491587033147367
 20
0.0000000000000142
 30
0.0
 11
15.78787533185205
 21
0.0000000000000142
 31
0.0
  0
LINE
  5
342D
  8
0
  6
BYBLOCK
 62
     3
 10
8.462278154851564
 20
24.0
 30
0.0
 11
15.78787533185205
 21
24.0
 31
0.0
  0
LINE
  5
342E
  8
0
  6
BYBLOCK
 62
     3
 10
15.28787533185205
 20
0.0000000000000142
 30
0.0
 11
15.28787533185205
 21
24.0
 31
0.0
  0
SOLID
  5
342F
  8
0
  6
BYBLOCK
 62
     3
 10
15.28787533185205
 20
0.0000000000000142
 30
0.0
 11
15.5378753318521
 21
1.500000000000014
 31
0.0
 12
15.03787533185201
 22
1.500000000000014
 32
0.0
 13
15.03787533185201
 23
1.500000000000014
 33
0.0
  0
SOLID
  5
3430
  8
0
  6
BYBLOCK
 62
     3
 10
15.28787533185205
 20
24.0
 30
0.0
 11
15.5378753318521
 21
22.5
 31
0.0
 12
15.03787533185201
 22
22.5
 32
0.0
 13
15.03787533185201
 23
22.5
 33
0.0
  0
TEXT
  5
3431
  8
0
  6
CONTINUOUS
 62
     3
 10
15.19515794054771
 20
10.33333333333334
 30
0.0
 40
2.0
  1
24
 50
90.0
  7
돋움
  0
ENDBLK
  8
0
  0
BLOCK
  8
0
  2
*D4
 70
     1
 10
0.0
 20
0.0
 30
0.0
  0
POINT
  5
33D2
  8
DEFPOINTS
  6
BYBLOCK
 62
     3
 10
-8.0
 20
-0.0000000000000079
 30
0.0
  0
POINT
  5
33D3
  8
DEFPOINTS
  6
BYBLOCK
 62
     3
 10
7.999999999999996
 20
0.0000000000000071
 30
0.0
  0
LINE
  5
33D4
  8
0
  6
BYBLOCK
 62
     3
 10
-8.0
 20
-0.5000000000000079
 30
0.0
 11
-8.0
 21
-8.222296414263436
 31
0.0
  0
LINE
  5
33D5
  8
0
  6
BYBLOCK
 62
     3
 10
7.999999999999996
 20
-0.4999999999999929
 30
0.0
 11
7.999999999999996
 21
-8.222296414263436
 31
0.0
  0
LINE
  5
33D6
  8
0
  6
BYBLOCK
 62
     3
 10
-8.0
 20
-7.722296414263438
 30
0.0
 11
7.999999999999996
 21
-7.722296414263438
 31
0.0
  0
SOLID
  5
33D7
  8
0
  6
BYBLOCK
 62
     3
 10
-8.0
 20
-7.722296414263438
 30
0.0
 11
-6.5
 21
-7.972296414263488
 31
0.0
 12
-6.5
 22
-7.472296414263388
 32
0.0
 13
-6.5
 23
-7.472296414263388
 33
0.0
  0
SOLID
  5
33D8
  8
0
  6
BYBLOCK
 62
     3
 10
7.999999999999996
 20
-7.722296414263438
 30
0.0
 11
6.499999999999996
 21
-7.972296414263488
 31
0.0
 12
6.499999999999996
 22
-7.472296414263388
 32
0.0
 13
6.499999999999996
 23
-7.472296414263388
 33
0.0
  0
INSERT
  5
33D9
  8
0
  6
BYBLOCK
 62
     3
  2
*X7
 10
0.0
 20
0.0
 30
0.0
  0
ENDBLK
  8
0
  0
BLOCK
  8
0
  2
*D5
 70
     1
 10
0.0
 20
0.0
 30
0.0
  0
POINT
  5
347A
  8
DEFPOINTS
  6
BYBLOCK
 62
     3
 10
7.999999999999996
 20
0.0000000000000071
 30
0.0
  0
POINT
  5
347B
  8
DEFPOINTS
  6
BYBLOCK
 62
     3
 10
7.999999999999998
 20
80.0
 30
0.0
  0
LINE
  5
347C
  8
0
  6
BYBLOCK
 62
     3
 10
8.499999999999996
 20
0.0000000000000071
 30
0.0
 11
21.01273859711608
 21
0.0000000000000071
 31
0.0
  0
LINE
  5
347D
  8
0
  6
BYBLOCK
 62
     3
 10
8.499999999999998
 20
80.0
 30
0.0
 11
21.01273859711608
 21
80.0
 31
0.0
  0
LINE
  5
347E
  8
0
  6
BYBLOCK
 62
     3
 10
20.51273859711608
 20
0.0000000000000071
 30
0.0
 11
20.51273859711608
 21
80.0
 31
0.0
  0
SOLID
  5
347F
  8
0
  6
BYBLOCK
 62
     3
 10
20.51273859711608
 20
0.0000000000000071
 30
0.0
 11
20.76273859711613
 21
1.500000000000007
 31
0.0
 12
20.26273859711603
 22
1.500000000000007
 32
0.0
 13
20.26273859711603
 23
1.500000000000007
 33
0.0
  0
SOLID
  5
3480
  8
0
  6
BYBLOCK
 62
     3
 10
20.51273859711608
 20
80.0
 30
0.0
 11
20.76273859711613
 21
78.5
 31
0.0
 12
20.26273859711603
 22
78.5
 32
0.0
 13
20.26273859711603
 23
78.5
 33
0.0
  0
TEXT
  5
3481
  8
0
  6
CONTINUOUS
 62
     3
 10
20.41866251015956
 20
38.38095238095239
 30
0.0
 40
2.0
  1
80
 50
90.0
  7
돋움
  0
ENDBLK
  8
0
  0
BLOCK
  8
0
  2
*X6
 70
     1
 10
0.0
 20
0.0
 30
0.0
  0
TEXT
  5
34E6
  8
0
  6
CONTINUOUS
 62
     3
 10
-2.285714285714286
 20
136.6973758603448
 30
0.0
 40
2.0
  1
\U+2205
  7
돋움
  0
TEXT
  5
34E7
  8
0
  6
CONTINUOUS
 62
     3
 10
-0.4761904761904763
 20
136.6973758603448
 30
0.0
 40
2.0
  1
16
  7
돋움
  0
ENDBLK
  8
0
  0
BLOCK
  8
0
  2
*X7
 70
     1
 10
0.0
 20
0.0
 30
0.0
  0
TEXT
  5
34E9
  8
0
  6
CONTINUOUS
 62
     3
 10
-2.285714285714287
 20
-7.577948588176482
 30
0.0
 40
2.0
  1
\U+2205
  7
돋움
  0
TEXT
  5
34EA
  8
0
  6
CONTINUOUS
 62
     3
 10
-0.4761904761904781
 20
-7.577948588176482
 30
0.0
 40
2.0
  1
16
  7
돋움
  0
ENDBLK
  8
0
  0
ENDSEC
  0
SECTION
  2
ENTITIES
  0
LINE
  5
394
  8
0
 10
-7.5
 20
130.0
 30
0.0
 11
7.5
 21
130.0
 31
0.0
  0
LINE
  5
398
  8
0
 10
-8.0
 20
-0.0000000000000079
 30
0.0
 11
-8.0
 21
129.5
 31
0.0
  0
LINE
  5
399
  8
0
 10
8.0
 20
0.000000000000015
 30
0.0
 11
8.0
 21
129.5
 31
0.0
  0
LINE
  5
39C
  8
0
 10
-8.0
 20
129.5
 30
0.0
 11
8.0
 21
129.5
 31
0.0
  0
LINE
  5
39D
  8
0
 10
-8.0
 20
129.5
 30
0.0
 11
-7.5
 21
130.0
 31
0.0
  0
LINE
  5
39E
  8
0
 10
8.0
 20
129.5
 30
0.0
 11
7.5
 21
130.0
 31
0.0
  0
DIMENSION
  5
39F
  8
0
  2
*D1
 10
8.0
 20
136.5530280342579
 30
0.0
 11
0.0
 21
136.5530280342579
 31
0.0
 70
   160
  1
%%c<>
 13
-8.0
 23
129.5
 33
0.0
 14
8.0
 24
129.5
 34
0.0
  0
DIMENSION
  5
89F
  8
0
  2
*D2
 10
28.01485721839547
 20
0.000000000000013
 30
0.0
 11
26.92078113143895
 21
65.0
 31
0.0
 70
    32
 13
7.5
 23
130.0
 33
0.0
 14
7.750000000000002
 24
0.0000000000000142
 34
0.0
 50
90.0
  0
LINE
  5
1932
  8
0
 10
-8.0
 20
-0.0000000000000079
 30
0.0
 11
8.0
 21
0.000000000000015
 31
0.0
  0
LINE
  5
1943
  8
0
  6
BYBLOCK
 62
     3
 10
4.549999999999995
 20
0.0
 30
0.0
 11
4.549999999999995
 21
0.0
 31
0.0
  0
LINE
  5
1944
  8
0
  6
BYBLOCK
 62
     3
 10
4.549999999999995
 20
0.0
 30
0.0
 11
4.549999999999995
 21
0.0
 31
0.0
  0
DIMENSION
  5
1A11
  8
0
  2
*D3
 10
15.28787533185205
 20
24.0
 30
0.0
 11
15.28787533185205
 21
12.00000000000001
 31
0.0
 70
   160
 13
7.991587033147367
 23
0.0000000000000142
 33
0.0
 14
7.962278154851564
 24
24.0
 34
0.0
 50
90.0
  0
DIMENSION
  5
22BC
  8
0
  2
*D4
 10
7.999999999999996
 20
-7.722296414263438
 30
0.0
 11
-0.0000000000000018
 21
-7.722296414263438
 31
0.0
 70
   160
  1
%%C<>
 13
-8.0
 23
-0.0000000000000079
 33
0.0
 14
7.999999999999996
 24
0.0000000000000071
 34
0.0
  0
DIMENSION
  5
2395
  8
0
  2
*D5
 10
20.51273859711608
 20
80.0
 30
0.0
 11
19.41866251015956
 21
40.00000000000001
 31
0.0
 70
    32
 13
7.999999999999996
 23
0.0000000000000071
 33
0.0
 14
7.999999999999998
 24
80.0
 34
0.0
 50
90.0
  0
ENDSEC
  0
EOF
