  0
SECTION
  2
HEADER
  9
$ACADVER
  1
AC1006
  9
$DWGCODEPAGE
  3
ansi_949
  9
$INSBASE
 10
0.0
 20
0.0
 30
0.0
  9
$EXTMIN
 10
-3.098251967226339
 20
-5.487251056840142
  9
$EXTMAX
 10
20.78742013610999
 20
64.80073221288971
  9
$LIMMIN
 10
0.0
 20
0.0
  9
$LIMMAX
 10
12.0
 20
9.0
  9
$ORTHOMODE
 70
     1
  9
$REGENMODE
 70
     1
  9
$FILLMODE
 70
     1
  9
$QTEXTMODE
 70
     0
  9
$MIRRTEXT
 70
     0
  9
$DRAGMODE
 70
     2
  9
$LTSCALE
 40
1.0
  9
$OSMODE
 70
    37
  9
$ATTMODE
 70
     1
  9
$TEXTSIZE
 40
0.2
  9
$TRACEWID
 40
0.05
  9
$TEXTSTYLE
  7
STANDARD
  9
$CLAYER
  8
0
  9
$CELTYPE
  6
BYLAYER
  9
$CECOLOR
 62
   256
  9
$DIMSCALE
 40
1.0
  9
$DIMASZ
 40
1.5
  9
$DIMEXO
 40
0.5
  9
$DIMDLI
 40
2.0
  9
$DIMRND
 40
0.0
  9
$DIMDLE
 40
0.0
  9
$DIMEXE
 40
0.5
  9
$DIMTP
 40
0.0
  9
$DIMTM
 40
0.0
  9
$DIMTXT
 40
2.0
  9
$DIMCEN
 40
0.0
  9
$DIMTSZ
 40
0.0
  9
$DIMTOL
 70
     0
  9
$DIMLIM
 70
     0
  9
$DIMTIH
 70
     0
  9
$DIMTOH
 70
     0
  9
$DIMSE1
 70
     0
  9
$DIMSE2
 70
     0
  9
$DIMTAD
 70
     1
  9
$DIMZIN
 70
     0
  9
$DIMBLK
  1

  9
$DIMASO
 70
     1
  9
$DIMSHO
 70
     1
  9
$DIMPOST
  1

  9
$DIMAPOST
  1

  9
$DIMALT
 70
     0
  9
$DIMALTD
 70
     2
  9
$DIMALTF
 40
25.4
  9
$DIMLFAC
 40
1.0
  9
$DIMTOFL
 70
     0
  9
$DIMTVP
 40
0.0
  9
$DIMTIX
 70
     0
  9
$DIMSOXD
 70
     0
  9
$DIMSAH
 70
     0
  9
$DIMBLK1
  1

  9
$DIMBLK2
  1

  9
$LUNITS
 70
     2
  9
$LUPREC
 70
     4
  9
$SKETCHINC
 40
0.1
  9
$FILLETRAD
 40
0.0
  9
$AUNITS
 70
     0
  9
$AUPREC
 70
     0
  9
$MENU
  1
.
  9
$ELEVATION
 40
0.0
  9
$THICKNESS
 40
0.0
  9
$LIMCHECK
 70
     0
  9
$CHAMFERA
 40
0.0
  9
$CHAMFERB
 40
0.0
  9
$SKPOLY
 70
     0
  9
$TDCREATE
 40
2453353.842125822
  9
$TDUPDATE
 40
2459506.325155544
  9
$TDINDWG
 40
0.0766991435
  9
$TDUSRTIMER
 40
0.0766643287
  9
$USRTIMER
 70
     1
  9
$ANGBASE
 50
0.0
  9
$ANGDIR
 70
     0
  9
$PDMODE
 70
     0
  9
$PDSIZE
 40
0.0
  9
$PLINEWID
 40
0.0
  9
$COORDS
 70
     1
  9
$SPLFRAME
 70
     0
  9
$SPLINETYPE
 70
     6
  9
$SPLINESEGS
 70
     8
  9
$ATTDIA
 70
     0
  9
$ATTREQ
 70
     1
  9
$HANDLING
 70
     1
  9
$HANDSEED
  5
1F29
  9
$SURFTAB1
 70
     6
  9
$SURFTAB2
 70
     6
  9
$SURFTYPE
 70
     6
  9
$SURFU
 70
     6
  9
$SURFV
 70
     6
  9
$UCSNAME
  2

  9
$UCSORG
 10
0.0
 20
0.0
 30
0.0
  9
$UCSXDIR
 10
1.0
 20
0.0
 30
0.0
  9
$UCSYDIR
 10
0.0
 20
1.0
 30
0.0
  9
$USERI1
 70
     0
  9
$USERI2
 70
     0
  9
$USERI3
 70
     0
  9
$USERI4
 70
     0
  9
$USERI5
 70
     0
  9
$USERR1
 40
0.0
  9
$USERR2
 40
0.0
  9
$USERR3
 40
0.0
  9
$USERR4
 40
0.0
  9
$USERR5
 40
0.0
  9
$WORLDVIEW
 70
     1
  0
ENDSEC
  0
SECTION
  2
TABLES
  0
TABLE
  2
VPORT
 70
     1
  0
VPORT
  2
*ACTIVE
 70
     0
 10
0.0
 20
0.0
 11
1.0
 21
1.0
 12
6.907233563555328
 22
29.65674057802478
 13
0.0
 23
0.0
 14
0.5
 24
0.5
 15
0.5
 25
0.5
 16
0.0
 26
0.0
 36
1.0
 17
0.0
 27
0.0
 37
0.0
 40
71.69374293512445
 41
1.701534170153416
 42
50.0
 43
0.0
 44
0.0
 50
0.0
 51
0.0
 71
    16
 72
  1000
 73
     1
 74
     3
 75
     0
 76
     0
 77
     0
 78
     0
  0
ENDTAB
  0
TABLE
  2
LTYPE
 70
     1
  0
LTYPE
  2
CONTINUOUS
 70
     0
  3
Solid line
 72
    65
 73
     0
 40
0.0
  0
ENDTAB
  0
TABLE
  2
LAYER
 70
     2
  0
LAYER
  2
0
 70
     0
 62
     7
  6
CONTINUOUS
  0
LAYER
  2
DEFPOINTS
 70
     0
 62
     7
  6
CONTINUOUS
  0
ENDTAB
  0
TABLE
  2
STYLE
 70
     2
  0
STYLE
  2
STANDARD
 70
     0
 40
0.0
 41
1.0
 50
0.0
 71
     0
 42
0.2
  3
IC-txt.shx
  4

  0
STYLE
  2
돋움
 70
     0
 40
0.0
 41
1.0
 50
0.0
 71
     0
 42
0.2
  3
Dotum.ttf
  4

  0
ENDTAB
  0
TABLE
  2
VIEW
 70
     0
  0
ENDTAB
  0
TABLE
  2
UCS
 70
     0
  0
ENDTAB
  0
ENDSEC
  0
SECTION
  2
BLOCKS
  0
BLOCK
  8
0
  2
*D1
 70
     1
 10
0.0
 20
0.0
 30
0.0
  0
POINT
  5
1E23
  8
DEFPOINTS
  6
BYBLOCK
 62
     3
 10
-3.0
 20
59.5
 30
0.0
  0
POINT
  5
1E24
  8
DEFPOINTS
  6
BYBLOCK
 62
     3
 10
3.0
 20
59.5
 30
0.0
  0
LINE
  5
1E25
  8
0
  6
BYBLOCK
 62
     3
 10
-3.0
 20
60.0
 30
0.0
 11
-3.0
 21
63.1020365607158
 31
0.0
  0
LINE
  5
1E26
  8
0
  6
BYBLOCK
 62
     3
 10
3.0
 20
60.0
 30
0.0
 11
3.0
 21
63.1020365607158
 31
0.0
  0
LINE
  5
1E27
  8
0
  6
BYBLOCK
 62
     3
 10
-3.0
 20
62.6020365607158
 30
0.0
 11
3.0
 21
62.6020365607158
 31
0.0
  0
SOLID
  5
1E28
  8
0
  6
BYBLOCK
 62
     3
 10
-3.0
 20
62.6020365607158
 30
0.0
 11
-1.5
 21
62.35203656071575
 31
0.0
 12
-1.5
 22
62.85203656071585
 32
0.0
 13
-1.5
 23
62.85203656071585
 33
0.0
  0
SOLID
  5
1E29
  8
0
  6
BYBLOCK
 62
     3
 10
3.0
 20
62.6020365607158
 30
0.0
 11
1.5
 21
62.35203656071575
 31
0.0
 12
1.5
 22
62.85203656071585
 32
0.0
 13
1.5
 23
62.85203656071585
 33
0.0
  0
INSERT
  5
1E2A
  8
0
  6
BYBLOCK
 62
     3
  2
*X6
 10
0.0
 20
0.0
 30
0.0
  0
ENDBLK
  8
0
  0
BLOCK
  8
0
  2
*D2
 70
     1
 10
0.0
 20
0.0
 30
0.0
  0
POINT
  5
1E50
  8
DEFPOINTS
  6
BYBLOCK
 62
     3
 10
2.5
 20
60.0
 30
0.0
  0
POINT
  5
1E51
  8
DEFPOINTS
  6
BYBLOCK
 62
     3
 10
3.0
 20
0.0000000000000087
 30
0.0
  0
LINE
  5
1E52
  8
0
  6
BYBLOCK
 62
     3
 10
3.0
 20
60.0
 30
0.0
 11
20.78742013610999
 21
60.0
 31
0.0
  0
LINE
  5
1E53
  8
0
  6
BYBLOCK
 62
     3
 10
3.5
 20
0.0000000000000071
 30
0.0
 11
20.78742013610999
 21
0.0000000000000071
 31
0.0
  0
LINE
  5
1E54
  8
0
  6
BYBLOCK
 62
     3
 10
20.28742013610999
 20
60.0
 30
0.0
 11
20.28742013610999
 21
0.0000000000000071
 31
0.0
  0
SOLID
  5
1E55
  8
0
  6
BYBLOCK
 62
     3
 10
20.28742013610999
 20
60.0
 30
0.0
 11
20.03742013610994
 21
58.5
 31
0.0
 12
20.53742013611004
 22
58.5
 32
0.0
 13
20.53742013611004
 23
58.5
 33
0.0
  0
SOLID
  5
1E56
  8
0
  6
BYBLOCK
 62
     3
 10
20.28742013610999
 20
0.0000000000000071
 30
0.0
 11
20.03742013610994
 21
1.500000000000007
 31
0.0
 12
20.53742013611004
 22
1.500000000000007
 32
0.0
 13
20.53742013611004
 23
1.500000000000007
 33
0.0
  0
TEXT
  5
1E57
  8
0
  6
CONTINUOUS
 62
     3
 10
20.1919853535013
 20
28.38095238095238
 30
0.0
 40
2.0
  1
60
 50
90.0
  7
돋움
  0
ENDBLK
  8
0
  0
BLOCK
  8
0
  2
*D3
 70
     1
 10
0.0
 20
0.0
 30
0.0
  0
POINT
  5
1DB8
  8
DEFPOINTS
  6
BYBLOCK
 62
     3
 10
-3.0
 20
-0.0000000000000016
 30
0.0
  0
POINT
  5
1DB9
  8
DEFPOINTS
  6
BYBLOCK
 62
     3
 10
3.0
 20
0.0000000000000087
 30
0.0
  0
LINE
  5
1DBA
  8
0
  6
BYBLOCK
 62
     3
 10
-3.0
 20
-0.5000000000000016
 30
0.0
 11
-3.0
 21
-5.487251056840142
 31
0.0
  0
LINE
  5
1DBB
  8
0
  6
BYBLOCK
 62
     3
 10
3.0
 20
-0.4999999999999913
 30
0.0
 11
3.0
 21
-5.487251056840142
 31
0.0
  0
LINE
  5
1DBC
  8
0
  6
BYBLOCK
 62
     3
 10
-3.0
 20
-4.987251056840142
 30
0.0
 11
3.0
 21
-4.987251056840142
 31
0.0
  0
SOLID
  5
1DBD
  8
0
  6
BYBLOCK
 62
     3
 10
-3.0
 20
-4.987251056840142
 30
0.0
 11
-1.5
 21
-5.237251056840192
 31
0.0
 12
-1.5
 22
-4.737251056840092
 32
0.0
 13
-1.5
 23
-4.737251056840092
 33
0.0
  0
SOLID
  5
1DBE
  8
0
  6
BYBLOCK
 62
     3
 10
3.0
 20
-4.987251056840142
 30
0.0
 11
1.5
 21
-5.237251056840192
 31
0.0
 12
1.5
 22
-4.737251056840092
 32
0.0
 13
1.5
 23
-4.737251056840092
 33
0.0
  0
INSERT
  5
1DBF
  8
0
  6
BYBLOCK
 62
     3
  2
*X7
 10
0.0
 20
0.0
 30
0.0
  0
ENDBLK
  8
0
  0
BLOCK
  8
0
  2
*D4
 70
     1
 10
0.0
 20
0.0
 30
0.0
  0
POINT
  5
1EE4
  8
DEFPOINTS
  6
BYBLOCK
 62
     3
 10
2.5
 20
21.0
 30
0.0
  0
POINT
  5
1EE5
  8
DEFPOINTS
  6
BYBLOCK
 62
     3
 10
3.0
 20
0.0000000000000087
 30
0.0
  0
LINE
  5
1EE6
  8
0
  6
BYBLOCK
 62
     3
 10
3.0
 20
21.0
 30
0.0
 11
17.01683215047978
 21
21.0
 31
0.0
  0
LINE
  5
1EE7
  8
0
  6
BYBLOCK
 62
     3
 10
3.5
 20
0.0000000000000071
 30
0.0
 11
17.01683215047978
 21
0.0000000000000071
 31
0.0
  0
LINE
  5
1EE8
  8
0
  6
BYBLOCK
 62
     3
 10
16.51683215047978
 20
21.0
 30
0.0
 11
16.51683215047978
 21
0.0000000000000071
 31
0.0
  0
SOLID
  5
1EE9
  8
0
  6
BYBLOCK
 62
     3
 10
16.51683215047978
 20
21.0
 30
0.0
 11
16.26683215047973
 21
19.5
 31
0.0
 12
16.76683215047983
 22
19.5
 32
0.0
 13
16.76683215047983
 23
19.5
 33
0.0
  0
SOLID
  5
1EEA
  8
0
  6
BYBLOCK
 62
     3
 10
16.51683215047978
 20
0.0000000000000071
 30
0.0
 11
16.26683215047973
 21
1.500000000000007
 31
0.0
 12
16.76683215047983
 22
1.500000000000007
 32
0.0
 13
16.76683215047983
 23
1.500000000000007
 33
0.0
  0
TEXT
  5
1EEB
  8
0
  6
CONTINUOUS
 62
     3
 10
16.42411475917543
 20
9.309523809523814
 30
0.0
 40
2.0
  1
21
 50
90.0
  7
돋움
  0
ENDBLK
  8
0
  0
BLOCK
  8
0
  2
*D5
 70
     1
 10
0.0
 20
0.0
 30
0.0
  0
POINT
  5
1EB4
  8
DEFPOINTS
  6
BYBLOCK
 62
     3
 10
3.0
 20
13.0
 30
0.0
  0
POINT
  5
1EB5
  8
DEFPOINTS
  6
BYBLOCK
 62
     3
 10
-2.598251967226339
 20
0.0000000000000087
 30
0.0
  0
LINE
  5
1EB6
  8
0
  6
BYBLOCK
 62
     3
 10
3.5
 20
13.0
 30
0.0
 11
11.41858018325344
 21
13.0
 31
0.0
  0
LINE
  5
1EB7
  8
0
  6
BYBLOCK
 62
     3
 10
-2.098251967226339
 20
0.0000000000000089
 30
0.0
 11
11.41858018325344
 21
0.0000000000000089
 31
0.0
  0
LINE
  5
1EB8
  8
0
  6
BYBLOCK
 62
     3
 10
10.91858018325344
 20
13.0
 30
0.0
 11
10.91858018325344
 21
0.0000000000000089
 31
0.0
  0
SOLID
  5
1EB9
  8
0
  6
BYBLOCK
 62
     3
 10
10.91858018325344
 20
13.0
 30
0.0
 11
10.66858018325339
 21
11.5
 31
0.0
 12
11.16858018325349
 22
11.5
 32
0.0
 13
11.16858018325349
 23
11.5
 33
0.0
  0
SOLID
  5
1EBA
  8
0
  6
BYBLOCK
 62
     3
 10
10.91858018325344
 20
0.0000000000000089
 30
0.0
 11
10.66858018325339
 21
1.500000000000009
 31
0.0
 12
11.16858018325349
 22
1.500000000000009
 32
0.0
 13
11.16858018325349
 23
1.500000000000009
 33
0.0
  0
TEXT
  5
1EBB
  8
0
  6
CONTINUOUS
 62
     3
 10
10.82450409629692
 20
5.071428571428576
 30
0.0
 40
2.0
  1
13
 50
90.0
  7
돋움
  0
ENDBLK
  8
0
  0
BLOCK
  8
0
  2
*X6
 70
     1
 10
0.0
 20
0.0
 30
0.0
  0
TEXT
  5
1F20
  8
0
  6
CONTINUOUS
 62
     3
 10
-1.854490450352849
 20
62.74638438680276
 30
0.0
 40
2.0
  1
\U+2205
  7
돋움
  0
TEXT
  5
1F21
  8
0
  6
CONTINUOUS
 62
     3
 10
-0.0449666408290401
 20
62.74638438680276
 30
0.0
 40
2.0
  1
6
  7
돋움
  0
ENDBLK
  8
0
  0
BLOCK
  8
0
  2
*X7
 70
     1
 10
0.0
 20
0.0
 30
0.0
  0
TEXT
  5
1F23
  8
0
  6
CONTINUOUS
 62
     3
 10
-1.523809523809524
 20
-4.842903230753185
 30
0.0
 40
2.0
  1
\U+2205
  7
돋움
  0
TEXT
  5
1F24
  8
0
  6
CONTINUOUS
 62
     3
 10
0.2857142857142856
 20
-4.842903230753185
 30
0.0
 40
2.0
  1
6
  7
돋움
  0
ENDBLK
  8
0
  0
ENDSEC
  0
SECTION
  2
ENTITIES
  0
LINE
  5
394
  8
0
 10
-2.5
 20
60.0
 30
0.0
 11
2.5
 21
60.0
 31
0.0
  0
LINE
  5
398
  8
0
 10
-3.0
 20
-0.0000000000000016
 30
0.0
 11
-3.0
 21
59.5
 31
0.0
  0
LINE
  5
399
  8
0
 10
3.0
 20
0.0000000000000087
 30
0.0
 11
3.0
 21
59.5
 31
0.0
  0
LINE
  5
39C
  8
0
 10
-3.0
 20
59.5
 30
0.0
 11
3.0
 21
59.5
 31
0.0
  0
LINE
  5
39D
  8
0
 10
-3.0
 20
59.5
 30
0.0
 11
-2.5
 21
60.0
 31
0.0
  0
LINE
  5
39E
  8
0
 10
3.0
 20
59.5
 30
0.0
 11
2.5
 21
60.0
 31
0.0
  0
DIMENSION
  5
39F
  8
0
  2
*D1
 10
3.0
 20
62.6020365607158
 30
0.0
 11
-0.3306809265433256
 21
62.6020365607158
 31
0.0
 70
   160
  1
%%c<>
 13
-3.0
 23
59.5
 33
0.0
 14
3.0
 24
59.5
 34
0.0
  0
DIMENSION
  5
89F
  8
0
  2
*D2
 10
20.28742013610999
 20
0.0000000000000077
 30
0.0
 11
19.1919853535013
 21
30.0
 31
0.0
 70
    32
 13
2.5
 23
60.0
 33
0.0
 14
3.0
 24
0.0000000000000087
 34
0.0
 50
90.0
  0
LINE
  5
1932
  8
0
 10
-3.0
 20
-0.0000000000000016
 30
0.0
 11
3.0
 21
0.0000000000000087
 31
0.0
  0
DIMENSION
  5
19A3
  8
0
  2
*D3
 10
3.0
 20
-4.987251056840142
 30
0.0
 11
0.0
 21
-3.842903230753186
 31
0.0
 70
    32
  1
%%C<>
 13
-3.0
 23
-0.0000000000000016
 33
0.0
 14
3.0
 24
0.0000000000000087
 34
0.0
  0
DIMENSION
  5
1C12
  8
0
  2
*D4
 10
16.51683215047978
 20
0.0000000000000079
 30
0.0
 11
15.42411475917543
 21
10.5
 31
0.0
 70
    32
 13
2.5
 23
21.0
 33
0.0
 14
3.0
 24
0.0000000000000087
 34
0.0
 50
90.0
  0
DIMENSION
  5
1E68
  8
0
  2
*D5
 10
10.91858018325344
 20
0.0000000000000079
 30
0.0
 11
9.824504096296918
 21
6.500000000000004
 31
0.0
 70
    32
 13
3.0
 23
13.0
 33
0.0
 14
-2.598251967226339
 24
0.0000000000000087
 34
0.0
 50
90.0
  0
ENDSEC
  0
EOF
