  0
SECTION
  2
HEADER
  9
$ACADVER
  1
AC1006
  9
$DWGCODEPAGE
  3
ansi_949
  9
$INSBASE
 10
0.0
 20
0.0
 30
0.0
  9
$EXTMIN
 10
-4.0
 20
-5.487251056840142
  9
$EXTMAX
 10
23.1418359346325
 20
64.80073221288971
  9
$LIMMIN
 10
0.0
 20
0.0
  9
$LIMMAX
 10
12.0
 20
9.0
  9
$ORTHOMODE
 70
     1
  9
$REGENMODE
 70
     1
  9
$FILLMODE
 70
     1
  9
$QTEXTMODE
 70
     0
  9
$MIRRTEXT
 70
     0
  9
$DRAGMODE
 70
     2
  9
$LTSCALE
 40
1.0
  9
$OSMODE
 70
    37
  9
$ATTMODE
 70
     1
  9
$TEXTSIZE
 40
0.2
  9
$TRACEWID
 40
0.05
  9
$TEXTSTYLE
  7
STANDARD
  9
$CLAYER
  8
0
  9
$CELTYPE
  6
BYLAYER
  9
$CECOLOR
 62
   256
  9
$DIMSCALE
 40
1.0
  9
$DIMASZ
 40
1.5
  9
$DIMEXO
 40
0.5
  9
$DIMDLI
 40
2.0
  9
$DIMRND
 40
0.0
  9
$DIMDLE
 40
0.0
  9
$DIMEXE
 40
0.5
  9
$DIMTP
 40
0.0
  9
$DIMTM
 40
0.0
  9
$DIMTXT
 40
2.0
  9
$DIMCEN
 40
0.0
  9
$DIMTSZ
 40
0.0
  9
$DIMTOL
 70
     0
  9
$DIMLIM
 70
     0
  9
$DIMTIH
 70
     0
  9
$DIMTOH
 70
     0
  9
$DIMSE1
 70
     0
  9
$DIMSE2
 70
     0
  9
$DIMTAD
 70
     1
  9
$DIMZIN
 70
     0
  9
$DIMBLK
  1

  9
$DIMASO
 70
     1
  9
$DIMSHO
 70
     1
  9
$DIMPOST
  1

  9
$DIMAPOST
  1

  9
$DIMALT
 70
     0
  9
$DIMALTD
 70
     2
  9
$DIMALTF
 40
25.4
  9
$DIMLFAC
 40
1.0
  9
$DIMTOFL
 70
     0
  9
$DIMTVP
 40
0.0
  9
$DIMTIX
 70
     0
  9
$DIMSOXD
 70
     0
  9
$DIMSAH
 70
     0
  9
$DIMBLK1
  1

  9
$DIMBLK2
  1

  9
$LUNITS
 70
     2
  9
$LUPREC
 70
     4
  9
$SKETCHINC
 40
0.1
  9
$FILLETRAD
 40
0.0
  9
$AUNITS
 70
     0
  9
$AUPREC
 70
     0
  9
$MENU
  1
.
  9
$ELEVATION
 40
0.0
  9
$THICKNESS
 40
0.0
  9
$LIMCHECK
 70
     0
  9
$CHAMFERA
 40
0.0
  9
$CHAMFERB
 40
0.0
  9
$SKPOLY
 70
     0
  9
$TDCREATE
 40
2453353.842125822
  9
$TDUPDATE
 40
2459506.32521794
  9
$TDINDWG
 40
0.0770000694
  9
$TDUSRTIMER
 40
0.0769652546
  9
$USRTIMER
 70
     1
  9
$ANGBASE
 50
0.0
  9
$ANGDIR
 70
     0
  9
$PDMODE
 70
     0
  9
$PDSIZE
 40
0.0
  9
$PLINEWID
 40
0.0
  9
$COORDS
 70
     1
  9
$SPLFRAME
 70
     0
  9
$SPLINETYPE
 70
     6
  9
$SPLINESEGS
 70
     8
  9
$ATTDIA
 70
     0
  9
$ATTREQ
 70
     1
  9
$HANDLING
 70
     1
  9
$HANDSEED
  5
1F7C
  9
$SURFTAB1
 70
     6
  9
$SURFTAB2
 70
     6
  9
$SURFTYPE
 70
     6
  9
$SURFU
 70
     6
  9
$SURFV
 70
     6
  9
$UCSNAME
  2

  9
$UCSORG
 10
0.0
 20
0.0
 30
0.0
  9
$UCSXDIR
 10
1.0
 20
0.0
 30
0.0
  9
$UCSYDIR
 10
0.0
 20
1.0
 30
0.0
  9
$USERI1
 70
     0
  9
$USERI2
 70
     0
  9
$USERI3
 70
     0
  9
$USERI4
 70
     0
  9
$USERI5
 70
     0
  9
$USERR1
 40
0.0
  9
$USERR2
 40
0.0
  9
$USERR3
 40
0.0
  9
$USERR4
 40
0.0
  9
$USERR5
 40
0.0
  9
$WORLDVIEW
 70
     1
  0
ENDSEC
  0
SECTION
  2
TABLES
  0
TABLE
  2
VPORT
 70
     1
  0
VPORT
  2
*ACTIVE
 70
     0
 10
0.0
 20
0.0
 11
1.0
 21
1.0
 12
6.907233563555328
 22
29.65674057802478
 13
0.0
 23
0.0
 14
0.5
 24
0.5
 15
0.5
 25
0.5
 16
0.0
 26
0.0
 36
1.0
 17
0.0
 27
0.0
 37
0.0
 40
71.69374293512445
 41
1.701534170153416
 42
50.0
 43
0.0
 44
0.0
 50
0.0
 51
0.0
 71
    16
 72
  1000
 73
     1
 74
     3
 75
     0
 76
     0
 77
     0
 78
     0
  0
ENDTAB
  0
TABLE
  2
LTYPE
 70
     1
  0
LTYPE
  2
CONTINUOUS
 70
     0
  3
Solid line
 72
    65
 73
     0
 40
0.0
  0
ENDTAB
  0
TABLE
  2
LAYER
 70
     2
  0
LAYER
  2
0
 70
     0
 62
     7
  6
CONTINUOUS
  0
LAYER
  2
DEFPOINTS
 70
     0
 62
     7
  6
CONTINUOUS
  0
ENDTAB
  0
TABLE
  2
STYLE
 70
     2
  0
STYLE
  2
STANDARD
 70
     0
 40
0.0
 41
1.0
 50
0.0
 71
     0
 42
0.2
  3
IC-txt.shx
  4

  0
STYLE
  2
돋움
 70
     0
 40
0.0
 41
1.0
 50
0.0
 71
     0
 42
0.2
  3
Dotum.ttf
  4

  0
ENDTAB
  0
TABLE
  2
VIEW
 70
     0
  0
ENDTAB
  0
TABLE
  2
UCS
 70
     0
  0
ENDTAB
  0
ENDSEC
  0
SECTION
  2
BLOCKS
  0
BLOCK
  8
0
  2
*D1
 70
     1
 10
0.0
 20
0.0
 30
0.0
  0
POINT
  5
1E84
  8
DEFPOINTS
  6
BYBLOCK
 62
     3
 10
-4.0
 20
59.5
 30
0.0
  0
POINT
  5
1E85
  8
DEFPOINTS
  6
BYBLOCK
 62
     3
 10
4.0
 20
59.5
 30
0.0
  0
LINE
  5
1E86
  8
0
  6
BYBLOCK
 62
     3
 10
-4.0
 20
60.0
 30
0.0
 11
-4.0
 21
63.1020365607158
 31
0.0
  0
LINE
  5
1E87
  8
0
  6
BYBLOCK
 62
     3
 10
4.0
 20
60.0
 30
0.0
 11
4.0
 21
63.1020365607158
 31
0.0
  0
LINE
  5
1E88
  8
0
  6
BYBLOCK
 62
     3
 10
-4.0
 20
62.6020365607158
 30
0.0
 11
4.0
 21
62.6020365607158
 31
0.0
  0
SOLID
  5
1E89
  8
0
  6
BYBLOCK
 62
     3
 10
-4.0
 20
62.6020365607158
 30
0.0
 11
-2.5
 21
62.35203656071575
 31
0.0
 12
-2.5
 22
62.85203656071585
 32
0.0
 13
-2.5
 23
62.85203656071585
 33
0.0
  0
SOLID
  5
1E8A
  8
0
  6
BYBLOCK
 62
     3
 10
4.0
 20
62.6020365607158
 30
0.0
 11
2.5
 21
62.35203656071575
 31
0.0
 12
2.5
 22
62.85203656071585
 32
0.0
 13
2.5
 23
62.85203656071585
 33
0.0
  0
INSERT
  5
1E8B
  8
0
  6
BYBLOCK
 62
     3
  2
*X6
 10
0.0
 20
0.0
 30
0.0
  0
ENDBLK
  8
0
  0
BLOCK
  8
0
  2
*D2
 70
     1
 10
0.0
 20
0.0
 30
0.0
  0
POINT
  5
1F1B
  8
DEFPOINTS
  6
BYBLOCK
 62
     3
 10
3.5
 20
60.0
 30
0.0
  0
POINT
  5
1F1C
  8
DEFPOINTS
  6
BYBLOCK
 62
     3
 10
4.0
 20
0.0000000000000087
 30
0.0
  0
LINE
  5
1F1D
  8
0
  6
BYBLOCK
 62
     3
 10
4.0
 20
60.0
 30
0.0
 11
23.1418359346325
 21
60.0
 31
0.0
  0
LINE
  5
1F1E
  8
0
  6
BYBLOCK
 62
     3
 10
4.5
 20
0.0000000000000071
 30
0.0
 11
23.1418359346325
 21
0.0000000000000071
 31
0.0
  0
LINE
  5
1F1F
  8
0
  6
BYBLOCK
 62
     3
 10
22.6418359346325
 20
60.0
 30
0.0
 11
22.6418359346325
 21
0.0000000000000071
 31
0.0
  0
SOLID
  5
1F20
  8
0
  6
BYBLOCK
 62
     3
 10
22.6418359346325
 20
60.0
 30
0.0
 11
22.39183593463245
 21
58.5
 31
0.0
 12
22.89183593463255
 22
58.5
 32
0.0
 13
22.89183593463255
 23
58.5
 33
0.0
  0
SOLID
  5
1F21
  8
0
  6
BYBLOCK
 62
     3
 10
22.6418359346325
 20
0.0000000000000071
 30
0.0
 11
22.39183593463245
 21
1.500000000000007
 31
0.0
 12
22.89183593463255
 22
1.500000000000007
 32
0.0
 13
22.89183593463255
 23
1.500000000000007
 33
0.0
  0
TEXT
  5
1F22
  8
0
  6
CONTINUOUS
 62
     3
 10
22.5464011520238
 20
28.38095238095238
 30
0.0
 40
2.0
  1
60
 50
90.0
  7
돋움
  0
ENDBLK
  8
0
  0
BLOCK
  8
0
  2
*D3
 70
     1
 10
0.0
 20
0.0
 30
0.0
  0
POINT
  5
1E54
  8
DEFPOINTS
  6
BYBLOCK
 62
     3
 10
-4.0
 20
-0.0000000000000016
 30
0.0
  0
POINT
  5
1E55
  8
DEFPOINTS
  6
BYBLOCK
 62
     3
 10
4.0
 20
0.0000000000000087
 30
0.0
  0
LINE
  5
1E56
  8
0
  6
BYBLOCK
 62
     3
 10
-4.0
 20
-0.5000000000000016
 30
0.0
 11
-4.0
 21
-5.487251056840142
 31
0.0
  0
LINE
  5
1E57
  8
0
  6
BYBLOCK
 62
     3
 10
4.0
 20
-0.4999999999999913
 30
0.0
 11
4.0
 21
-5.487251056840142
 31
0.0
  0
LINE
  5
1E58
  8
0
  6
BYBLOCK
 62
     3
 10
-4.0
 20
-4.987251056840142
 30
0.0
 11
4.0
 21
-4.987251056840142
 31
0.0
  0
SOLID
  5
1E59
  8
0
  6
BYBLOCK
 62
     3
 10
-4.0
 20
-4.987251056840142
 30
0.0
 11
-2.5
 21
-5.237251056840192
 31
0.0
 12
-2.5
 22
-4.737251056840092
 32
0.0
 13
-2.5
 23
-4.737251056840092
 33
0.0
  0
SOLID
  5
1E5A
  8
0
  6
BYBLOCK
 62
     3
 10
4.0
 20
-4.987251056840142
 30
0.0
 11
2.5
 21
-5.237251056840192
 31
0.0
 12
2.5
 22
-4.737251056840092
 32
0.0
 13
2.5
 23
-4.737251056840092
 33
0.0
  0
INSERT
  5
1E5B
  8
0
  6
BYBLOCK
 62
     3
  2
*X7
 10
0.0
 20
0.0
 30
0.0
  0
ENDBLK
  8
0
  0
BLOCK
  8
0
  2
*D4
 70
     1
 10
0.0
 20
0.0
 30
0.0
  0
POINT
  5
1F37
  8
DEFPOINTS
  6
BYBLOCK
 62
     3
 10
3.5
 20
27.0
 30
0.0
  0
POINT
  5
1F38
  8
DEFPOINTS
  6
BYBLOCK
 62
     3
 10
4.0
 20
0.0000000000000087
 30
0.0
  0
LINE
  5
1F39
  8
0
  6
BYBLOCK
 62
     3
 10
4.0
 20
27.0
 30
0.0
 11
17.92653776391161
 21
27.0
 31
0.0
  0
LINE
  5
1F3A
  8
0
  6
BYBLOCK
 62
     3
 10
4.5
 20
0.0000000000000071
 30
0.0
 11
17.92653776391161
 21
0.0000000000000071
 31
0.0
  0
LINE
  5
1F3B
  8
0
  6
BYBLOCK
 62
     3
 10
17.42653776391161
 20
27.0
 30
0.0
 11
17.42653776391161
 21
0.0000000000000071
 31
0.0
  0
SOLID
  5
1F3C
  8
0
  6
BYBLOCK
 62
     3
 10
17.42653776391161
 20
27.0
 30
0.0
 11
17.17653776391156
 21
25.5
 31
0.0
 12
17.67653776391166
 22
25.5
 32
0.0
 13
17.67653776391166
 23
25.5
 33
0.0
  0
SOLID
  5
1F3D
  8
0
  6
BYBLOCK
 62
     3
 10
17.42653776391161
 20
0.0000000000000071
 30
0.0
 11
17.17653776391156
 21
1.500000000000007
 31
0.0
 12
17.67653776391166
 22
1.500000000000007
 32
0.0
 13
17.67653776391166
 23
1.500000000000007
 33
0.0
  0
TEXT
  5
1F3E
  8
0
  6
CONTINUOUS
 62
     3
 10
17.33382037260727
 20
11.88095238095238
 30
0.0
 40
2.0
  1
27
 50
90.0
  7
돋움
  0
ENDBLK
  8
0
  0
BLOCK
  8
0
  2
*D5
 70
     1
 10
0.0
 20
0.0
 30
0.0
  0
POINT
  5
1F0B
  8
DEFPOINTS
  6
BYBLOCK
 62
     3
 10
4.0
 20
19.0
 30
0.0
  0
POINT
  5
1F0C
  8
DEFPOINTS
  6
BYBLOCK
 62
     3
 10
-1.688546353794514
 20
0.0000000000000087
 30
0.0
  0
LINE
  5
1F0D
  8
0
  6
BYBLOCK
 62
     3
 10
4.5
 20
19.0
 30
0.0
 11
12.2379914101171
 21
19.0
 31
0.0
  0
LINE
  5
1F0E
  8
0
  6
BYBLOCK
 62
     3
 10
-1.188546353794514
 20
0.0000000000000071
 30
0.0
 11
12.2379914101171
 21
0.0000000000000071
 31
0.0
  0
LINE
  5
1F0F
  8
0
  6
BYBLOCK
 62
     3
 10
11.7379914101171
 20
19.0
 30
0.0
 11
11.7379914101171
 21
0.0000000000000071
 31
0.0
  0
SOLID
  5
1F10
  8
0
  6
BYBLOCK
 62
     3
 10
11.7379914101171
 20
19.0
 30
0.0
 11
11.48799141011705
 21
17.5
 31
0.0
 12
11.98799141011715
 22
17.5
 32
0.0
 13
11.98799141011715
 23
17.5
 33
0.0
  0
SOLID
  5
1F11
  8
0
  6
BYBLOCK
 62
     3
 10
11.7379914101171
 20
0.0000000000000071
 30
0.0
 11
11.48799141011705
 21
1.500000000000007
 31
0.0
 12
11.98799141011715
 22
1.500000000000007
 32
0.0
 13
11.98799141011715
 23
1.500000000000007
 33
0.0
  0
TEXT
  5
1F12
  8
0
  6
CONTINUOUS
 62
     3
 10
11.64391532316058
 20
8.119047619047622
 30
0.0
 40
2.0
  1
19
 50
90.0
  7
돋움
  0
ENDBLK
  8
0
  0
BLOCK
  8
0
  2
*X6
 70
     1
 10
0.0
 20
0.0
 30
0.0
  0
TEXT
  5
1F73
  8
0
  6
CONTINUOUS
 62
     3
 10
-1.902109497971897
 20
62.74638438680276
 30
0.0
 40
2.0
  1
\U+2205
  7
돋움
  0
TEXT
  5
1F74
  8
0
  6
CONTINUOUS
 62
     3
 10
-0.0925856884480876
 20
62.74638438680276
 30
0.0
 40
2.0
  1
8
  7
돋움
  0
ENDBLK
  8
0
  0
BLOCK
  8
0
  2
*X7
 70
     1
 10
0.0
 20
0.0
 30
0.0
  0
TEXT
  5
1F76
  8
0
  6
CONTINUOUS
 62
     3
 10
-1.571428571428571
 20
-4.842903230753185
 30
0.0
 40
2.0
  1
\U+2205
  7
돋움
  0
TEXT
  5
1F77
  8
0
  6
CONTINUOUS
 62
     3
 10
0.2380952380952381
 20
-4.842903230753185
 30
0.0
 40
2.0
  1
8
  7
돋움
  0
ENDBLK
  8
0
  0
ENDSEC
  0
SECTION
  2
ENTITIES
  0
LINE
  5
394
  8
0
 10
-3.5
 20
60.0
 30
0.0
 11
3.5
 21
60.0
 31
0.0
  0
LINE
  5
398
  8
0
 10
-4.0
 20
-0.0000000000000016
 30
0.0
 11
-4.0
 21
59.5
 31
0.0
  0
LINE
  5
399
  8
0
 10
4.0
 20
0.0000000000000087
 30
0.0
 11
4.0
 21
59.5
 31
0.0
  0
LINE
  5
39C
  8
0
 10
-4.0
 20
59.5
 30
0.0
 11
4.0
 21
59.5
 31
0.0
  0
LINE
  5
39D
  8
0
 10
-4.0
 20
59.5
 30
0.0
 11
-3.5
 21
60.0
 31
0.0
  0
LINE
  5
39E
  8
0
 10
4.0
 20
59.5
 30
0.0
 11
3.5
 21
60.0
 31
0.0
  0
DIMENSION
  5
39F
  8
0
  2
*D1
 10
4.0
 20
62.6020365607158
 30
0.0
 11
-0.3306809265433256
 21
62.6020365607158
 31
0.0
 70
   160
  1
%%c<>
 13
-4.0
 23
59.5
 33
0.0
 14
4.0
 24
59.5
 34
0.0
  0
DIMENSION
  5
89F
  8
0
  2
*D2
 10
22.6418359346325
 20
0.0000000000000076
 30
0.0
 11
21.5464011520238
 21
30.0
 31
0.0
 70
    32
 13
3.5
 23
60.0
 33
0.0
 14
4.0
 24
0.0000000000000087
 34
0.0
 50
90.0
  0
LINE
  5
1932
  8
0
 10
-4.0
 20
-0.0000000000000016
 30
0.0
 11
4.0
 21
0.0000000000000087
 31
0.0
  0
DIMENSION
  5
19A3
  8
0
  2
*D3
 10
4.0
 20
-4.987251056840142
 30
0.0
 11
0.0
 21
-3.842903230753186
 31
0.0
 70
    32
  1
%%C<>
 13
-4.0
 23
-0.0000000000000016
 33
0.0
 14
4.0
 24
0.0000000000000087
 34
0.0
  0
DIMENSION
  5
1C12
  8
0
  2
*D4
 10
17.42653776391161
 20
0.0000000000000079
 30
0.0
 11
16.33382037260727
 21
13.5
 31
0.0
 70
    32
 13
3.5
 23
27.0
 33
0.0
 14
4.0
 24
0.0000000000000087
 34
0.0
 50
90.0
  0
DIMENSION
  5
1ECB
  8
0
  2
*D5
 10
11.7379914101171
 20
0.0000000000000079
 30
0.0
 11
10.64391532316058
 21
9.500000000000004
 31
0.0
 70
    32
 13
4.0
 23
19.0
 33
0.0
 14
-1.688546353794514
 24
0.0000000000000087
 34
0.0
 50
90.0
  0
ENDSEC
  0
EOF
