  0
SECTION
  2
HEADER
  9
$ACADVER
  1
AC1006
  9
$DWGCODEPAGE
  3
ansi_949
  9
$INSBASE
 10
0.0
 20
0.0
 30
0.0
  9
$EXTMIN
 10
-5.0
 20
-5.487251056840142
  9
$EXTMAX
 10
23.66208163334598
 20
74.80073221288971
  9
$LIMMIN
 10
0.0
 20
0.0
  9
$LIMMAX
 10
12.0
 20
9.0
  9
$ORTHOMODE
 70
     1
  9
$REGENMODE
 70
     1
  9
$FILLMODE
 70
     1
  9
$QTEXTMODE
 70
     0
  9
$MIRRTEXT
 70
     0
  9
$DRAGMODE
 70
     2
  9
$LTSCALE
 40
1.0
  9
$OSMODE
 70
    37
  9
$ATTMODE
 70
     1
  9
$TEXTSIZE
 40
0.2
  9
$TRACEWID
 40
0.05
  9
$TEXTSTYLE
  7
STANDARD
  9
$CLAYER
  8
0
  9
$CELTYPE
  6
BYLAYER
  9
$CECOLOR
 62
   256
  9
$DIMSCALE
 40
1.0
  9
$DIMASZ
 40
1.5
  9
$DIMEXO
 40
0.5
  9
$DIMDLI
 40
2.0
  9
$DIMRND
 40
0.0
  9
$DIMDLE
 40
0.0
  9
$DIMEXE
 40
0.5
  9
$DIMTP
 40
0.0
  9
$DIMTM
 40
0.0
  9
$DIMTXT
 40
2.0
  9
$DIMCEN
 40
0.0
  9
$DIMTSZ
 40
0.0
  9
$DIMTOL
 70
     0
  9
$DIMLIM
 70
     0
  9
$DIMTIH
 70
     0
  9
$DIMTOH
 70
     0
  9
$DIMSE1
 70
     0
  9
$DIMSE2
 70
     0
  9
$DIMTAD
 70
     1
  9
$DIMZIN
 70
     0
  9
$DIMBLK
  1

  9
$DIMASO
 70
     1
  9
$DIMSHO
 70
     1
  9
$DIMPOST
  1

  9
$DIMAPOST
  1

  9
$DIMALT
 70
     0
  9
$DIMALTD
 70
     2
  9
$DIMALTF
 40
25.4
  9
$DIMLFAC
 40
1.0
  9
$DIMTOFL
 70
     0
  9
$DIMTVP
 40
0.0
  9
$DIMTIX
 70
     0
  9
$DIMSOXD
 70
     0
  9
$DIMSAH
 70
     0
  9
$DIMBLK1
  1

  9
$DIMBLK2
  1

  9
$LUNITS
 70
     2
  9
$LUPREC
 70
     4
  9
$SKETCHINC
 40
0.1
  9
$FILLETRAD
 40
0.0
  9
$AUNITS
 70
     0
  9
$AUPREC
 70
     0
  9
$MENU
  1
.
  9
$ELEVATION
 40
0.0
  9
$THICKNESS
 40
0.0
  9
$LIMCHECK
 70
     0
  9
$CHAMFERA
 40
0.0
  9
$CHAMFERB
 40
0.0
  9
$SKPOLY
 70
     0
  9
$TDCREATE
 40
2453353.842125822
  9
$TDUPDATE
 40
2459506.32527816
  9
$TDINDWG
 40
0.0774167361
  9
$TDUSRTIMER
 40
0.0773819213
  9
$USRTIMER
 70
     1
  9
$ANGBASE
 50
0.0
  9
$ANGDIR
 70
     0
  9
$PDMODE
 70
     0
  9
$PDSIZE
 40
0.0
  9
$PLINEWID
 40
0.0
  9
$COORDS
 70
     1
  9
$SPLFRAME
 70
     0
  9
$SPLINETYPE
 70
     6
  9
$SPLINESEGS
 70
     8
  9
$ATTDIA
 70
     0
  9
$ATTREQ
 70
     1
  9
$HANDLING
 70
     1
  9
$HANDSEED
  5
2039
  9
$SURFTAB1
 70
     6
  9
$SURFTAB2
 70
     6
  9
$SURFTYPE
 70
     6
  9
$SURFU
 70
     6
  9
$SURFV
 70
     6
  9
$UCSNAME
  2

  9
$UCSORG
 10
0.0
 20
0.0
 30
0.0
  9
$UCSXDIR
 10
1.0
 20
0.0
 30
0.0
  9
$UCSYDIR
 10
0.0
 20
1.0
 30
0.0
  9
$USERI1
 70
     0
  9
$USERI2
 70
     0
  9
$USERI3
 70
     0
  9
$USERI4
 70
     0
  9
$USERI5
 70
     0
  9
$USERR1
 40
0.0
  9
$USERR2
 40
0.0
  9
$USERR3
 40
0.0
  9
$USERR4
 40
0.0
  9
$USERR5
 40
0.0
  9
$WORLDVIEW
 70
     1
  0
ENDSEC
  0
SECTION
  2
TABLES
  0
TABLE
  2
VPORT
 70
     1
  0
VPORT
  2
*ACTIVE
 70
     0
 10
0.0
 20
0.0
 11
1.0
 21
1.0
 12
6.907233563555328
 22
34.65674057802479
 13
0.0
 23
0.0
 14
0.5
 24
0.5
 15
0.5
 25
0.5
 16
0.0
 26
0.0
 36
1.0
 17
0.0
 27
0.0
 37
0.0
 40
81.89374293512445
 41
1.701534170153416
 42
50.0
 43
0.0
 44
0.0
 50
0.0
 51
0.0
 71
    16
 72
  1000
 73
     1
 74
     3
 75
     0
 76
     0
 77
     0
 78
     0
  0
ENDTAB
  0
TABLE
  2
LTYPE
 70
     1
  0
LTYPE
  2
CONTINUOUS
 70
     0
  3
Solid line
 72
    65
 73
     0
 40
0.0
  0
ENDTAB
  0
TABLE
  2
LAYER
 70
     2
  0
LAYER
  2
0
 70
     0
 62
     7
  6
CONTINUOUS
  0
LAYER
  2
DEFPOINTS
 70
     0
 62
     7
  6
CONTINUOUS
  0
ENDTAB
  0
TABLE
  2
STYLE
 70
     2
  0
STYLE
  2
STANDARD
 70
     0
 40
0.0
 41
1.0
 50
0.0
 71
     0
 42
0.2
  3
IC-txt.shx
  4

  0
STYLE
  2
돋움
 70
     0
 40
0.0
 41
1.0
 50
0.0
 71
     0
 42
0.2
  3
Dotum.ttf
  4

  0
ENDTAB
  0
TABLE
  2
VIEW
 70
     0
  0
ENDTAB
  0
TABLE
  2
UCS
 70
     0
  0
ENDTAB
  0
ENDSEC
  0
SECTION
  2
BLOCKS
  0
BLOCK
  8
0
  2
*D1
 70
     1
 10
0.0
 20
0.0
 30
0.0
  0
POINT
  5
1F13
  8
DEFPOINTS
  6
BYBLOCK
 62
     3
 10
-5.0
 20
69.5
 30
0.0
  0
POINT
  5
1F14
  8
DEFPOINTS
  6
BYBLOCK
 62
     3
 10
5.0
 20
69.5
 30
0.0
  0
LINE
  5
1F15
  8
0
  6
BYBLOCK
 62
     3
 10
-5.0
 20
70.0
 30
0.0
 11
-5.0
 21
73.1020365607158
 31
0.0
  0
LINE
  5
1F16
  8
0
  6
BYBLOCK
 62
     3
 10
5.0
 20
70.0
 30
0.0
 11
5.0
 21
73.1020365607158
 31
0.0
  0
LINE
  5
1F17
  8
0
  6
BYBLOCK
 62
     3
 10
-5.0
 20
72.6020365607158
 30
0.0
 11
5.0
 21
72.6020365607158
 31
0.0
  0
SOLID
  5
1F18
  8
0
  6
BYBLOCK
 62
     3
 10
-5.0
 20
72.6020365607158
 30
0.0
 11
-3.5
 21
72.35203656071575
 31
0.0
 12
-3.5
 22
72.85203656071586
 32
0.0
 13
-3.5
 23
72.85203656071586
 33
0.0
  0
SOLID
  5
1F19
  8
0
  6
BYBLOCK
 62
     3
 10
5.0
 20
72.6020365607158
 30
0.0
 11
3.5
 21
72.35203656071575
 31
0.0
 12
3.5
 22
72.85203656071586
 32
0.0
 13
3.5
 23
72.85203656071586
 33
0.0
  0
INSERT
  5
1F1A
  8
0
  6
BYBLOCK
 62
     3
  2
*X6
 10
0.0
 20
0.0
 30
0.0
  0
ENDBLK
  8
0
  0
BLOCK
  8
0
  2
*D2
 70
     1
 10
0.0
 20
0.0
 30
0.0
  0
POINT
  5
1FF4
  8
DEFPOINTS
  6
BYBLOCK
 62
     3
 10
4.5
 20
70.0
 30
0.0
  0
POINT
  5
1FF5
  8
DEFPOINTS
  6
BYBLOCK
 62
     3
 10
5.0
 20
0.0000000000000087
 30
0.0
  0
LINE
  5
1FF6
  8
0
  6
BYBLOCK
 62
     3
 10
5.0
 20
70.0
 30
0.0
 11
23.66208163334598
 21
70.0
 31
0.0
  0
LINE
  5
1FF7
  8
0
  6
BYBLOCK
 62
     3
 10
5.5
 20
0.0000000000000142
 30
0.0
 11
23.66208163334598
 21
0.0000000000000142
 31
0.0
  0
LINE
  5
1FF8
  8
0
  6
BYBLOCK
 62
     3
 10
23.16208163334598
 20
70.0
 30
0.0
 11
23.16208163334598
 21
0.0000000000000142
 31
0.0
  0
SOLID
  5
1FF9
  8
0
  6
BYBLOCK
 62
     3
 10
23.16208163334598
 20
70.0
 30
0.0
 11
22.91208163334593
 21
68.5
 31
0.0
 12
23.41208163334603
 22
68.5
 32
0.0
 13
23.41208163334603
 23
68.5
 33
0.0
  0
SOLID
  5
1FFA
  8
0
  6
BYBLOCK
 62
     3
 10
23.16208163334598
 20
0.0000000000000142
 30
0.0
 11
22.91208163334593
 21
1.500000000000014
 31
0.0
 12
23.41208163334603
 22
1.500000000000014
 32
0.0
 13
23.41208163334603
 23
1.500000000000014
 33
0.0
  0
TEXT
  5
1FFB
  8
0
  6
CONTINUOUS
 62
     3
 10
23.06800554638945
 20
33.38095238095239
 30
0.0
 40
2.0
  1
70
 50
90.0
  7
돋움
  0
ENDBLK
  8
0
  0
BLOCK
  8
0
  2
*D3
 70
     1
 10
0.0
 20
0.0
 30
0.0
  0
POINT
  5
1EF3
  8
DEFPOINTS
  6
BYBLOCK
 62
     3
 10
-5.0
 20
-0.0000000000000016
 30
0.0
  0
POINT
  5
1EF4
  8
DEFPOINTS
  6
BYBLOCK
 62
     3
 10
5.0
 20
0.0000000000000087
 30
0.0
  0
LINE
  5
1EF5
  8
0
  6
BYBLOCK
 62
     3
 10
-5.0
 20
-0.5000000000000016
 30
0.0
 11
-5.0
 21
-5.487251056840142
 31
0.0
  0
LINE
  5
1EF6
  8
0
  6
BYBLOCK
 62
     3
 10
5.0
 20
-0.4999999999999913
 30
0.0
 11
5.0
 21
-5.487251056840142
 31
0.0
  0
LINE
  5
1EF7
  8
0
  6
BYBLOCK
 62
     3
 10
-5.0
 20
-4.987251056840142
 30
0.0
 11
5.0
 21
-4.987251056840142
 31
0.0
  0
SOLID
  5
1EF8
  8
0
  6
BYBLOCK
 62
     3
 10
-5.0
 20
-4.987251056840142
 30
0.0
 11
-3.5
 21
-5.237251056840192
 31
0.0
 12
-3.5
 22
-4.737251056840092
 32
0.0
 13
-3.5
 23
-4.737251056840092
 33
0.0
  0
SOLID
  5
1EF9
  8
0
  6
BYBLOCK
 62
     3
 10
5.0
 20
-4.987251056840142
 30
0.0
 11
3.5
 21
-5.237251056840192
 31
0.0
 12
3.5
 22
-4.737251056840092
 32
0.0
 13
3.5
 23
-4.737251056840092
 33
0.0
  0
INSERT
  5
1EFA
  8
0
  6
BYBLOCK
 62
     3
  2
*X7
 10
0.0
 20
0.0
 30
0.0
  0
ENDBLK
  8
0
  0
BLOCK
  8
0
  2
*D4
 70
     1
 10
0.0
 20
0.0
 30
0.0
  0
POINT
  5
1FE4
  8
DEFPOINTS
  6
BYBLOCK
 62
     3
 10
4.5
 20
32.0
 30
0.0
  0
POINT
  5
1FE5
  8
DEFPOINTS
  6
BYBLOCK
 62
     3
 10
5.0
 20
0.0000000000000087
 30
0.0
  0
LINE
  5
1FE6
  8
0
  6
BYBLOCK
 62
     3
 10
5.0
 20
32.0
 30
0.0
 11
18.65380483761313
 21
32.0
 31
0.0
  0
LINE
  5
1FE7
  8
0
  6
BYBLOCK
 62
     3
 10
5.5
 20
0.0000000000000071
 30
0.0
 11
18.65380483761313
 21
0.0000000000000071
 31
0.0
  0
LINE
  5
1FE8
  8
0
  6
BYBLOCK
 62
     3
 10
18.15380483761313
 20
32.0
 30
0.0
 11
18.15380483761313
 21
0.0000000000000071
 31
0.0
  0
SOLID
  5
1FE9
  8
0
  6
BYBLOCK
 62
     3
 10
18.15380483761313
 20
32.0
 30
0.0
 11
17.90380483761308
 21
30.5
 31
0.0
 12
18.40380483761318
 22
30.5
 32
0.0
 13
18.40380483761318
 23
30.5
 33
0.0
  0
SOLID
  5
1FEA
  8
0
  6
BYBLOCK
 62
     3
 10
18.15380483761313
 20
0.0000000000000071
 30
0.0
 11
17.90380483761308
 21
1.500000000000007
 31
0.0
 12
18.40380483761318
 22
1.500000000000007
 32
0.0
 13
18.40380483761318
 23
1.500000000000007
 33
0.0
  0
TEXT
  5
1FEB
  8
0
  6
CONTINUOUS
 62
     3
 10
18.05972875065662
 20
14.38095238095239
 30
0.0
 40
2.0
  1
32
 50
90.0
  7
돋움
  0
ENDBLK
  8
0
  0
BLOCK
  8
0
  2
*D5
 70
     1
 10
0.0
 20
0.0
 30
0.0
  0
POINT
  5
1FCC
  8
DEFPOINTS
  6
BYBLOCK
 62
     3
 10
4.5
 20
22.0
 30
0.0
  0
POINT
  5
1FCD
  8
DEFPOINTS
  6
BYBLOCK
 62
     3
 10
-0.2601774429362038
 20
0.0000000000000087
 30
0.0
  0
LINE
  5
1FCE
  8
0
  6
BYBLOCK
 62
     3
 10
5.0
 20
22.0
 30
0.0
 11
13.39362739467693
 21
22.0
 31
0.0
  0
LINE
  5
1FCF
  8
0
  6
BYBLOCK
 62
     3
 10
0.2398225570637962
 20
0.0000000000000071
 30
0.0
 11
13.39362739467693
 21
0.0000000000000071
 31
0.0
  0
LINE
  5
1FD0
  8
0
  6
BYBLOCK
 62
     3
 10
12.89362739467693
 20
22.0
 30
0.0
 11
12.89362739467693
 21
0.0000000000000071
 31
0.0
  0
SOLID
  5
1FD1
  8
0
  6
BYBLOCK
 62
     3
 10
12.89362739467693
 20
22.0
 30
0.0
 11
12.64362739467688
 21
20.5
 31
0.0
 12
13.14362739467698
 22
20.5
 32
0.0
 13
13.14362739467698
 23
20.5
 33
0.0
  0
SOLID
  5
1FD2
  8
0
  6
BYBLOCK
 62
     3
 10
12.89362739467693
 20
0.0000000000000071
 30
0.0
 11
12.64362739467688
 21
1.500000000000007
 31
0.0
 12
13.14362739467698
 22
1.500000000000007
 32
0.0
 13
13.14362739467698
 23
1.500000000000007
 33
0.0
  0
TEXT
  5
1FD3
  8
0
  6
CONTINUOUS
 62
     3
 10
12.80091000337258
 20
9.380952380952385
 30
0.0
 40
2.0
  1
22
 50
90.0
  7
돋움
  0
ENDBLK
  8
0
  0
BLOCK
  8
0
  2
*X6
 70
     1
 10
0.0
 20
0.0
 30
0.0
  0
TEXT
  5
2030
  8
0
  6
CONTINUOUS
 62
     3
 10
-2.664014259876659
 20
72.74638438680276
 30
0.0
 40
2.0
  1
\U+2205
  7
돋움
  0
TEXT
  5
2031
  8
0
  6
CONTINUOUS
 62
     3
 10
-0.8544904503528494
 20
72.74638438680276
 30
0.0
 40
2.0
  1
10
  7
돋움
  0
ENDBLK
  8
0
  0
BLOCK
  8
0
  2
*X7
 70
     1
 10
0.0
 20
0.0
 30
0.0
  0
TEXT
  5
2033
  8
0
  6
CONTINUOUS
 62
     3
 10
-2.333333333333333
 20
-4.842903230753185
 30
0.0
 40
2.0
  1
\U+2205
  7
돋움
  0
TEXT
  5
2034
  8
0
  6
CONTINUOUS
 62
     3
 10
-0.5238095238095237
 20
-4.842903230753185
 30
0.0
 40
2.0
  1
10
  7
돋움
  0
ENDBLK
  8
0
  0
ENDSEC
  0
SECTION
  2
ENTITIES
  0
LINE
  5
394
  8
0
 10
-4.5
 20
70.0
 30
0.0
 11
4.5
 21
70.0
 31
0.0
  0
LINE
  5
398
  8
0
 10
-5.0
 20
-0.0000000000000016
 30
0.0
 11
-5.0
 21
69.5
 31
0.0
  0
LINE
  5
399
  8
0
 10
5.0
 20
0.0000000000000087
 30
0.0
 11
5.0
 21
69.5
 31
0.0
  0
LINE
  5
39C
  8
0
 10
-5.0
 20
69.5
 30
0.0
 11
5.0
 21
69.5
 31
0.0
  0
LINE
  5
39D
  8
0
 10
-5.0
 20
69.5
 30
0.0
 11
-4.5
 21
70.0
 31
0.0
  0
LINE
  5
39E
  8
0
 10
5.0
 20
69.5
 30
0.0
 11
4.5
 21
70.0
 31
0.0
  0
DIMENSION
  5
39F
  8
0
  2
*D1
 10
5.0
 20
72.6020365607158
 30
0.0
 11
-0.3306809265433256
 21
72.6020365607158
 31
0.0
 70
   160
  1
%%c<>
 13
-5.0
 23
69.5
 33
0.0
 14
5.0
 24
69.5
 34
0.0
  0
DIMENSION
  5
89F
  8
0
  2
*D2
 10
23.16208163334598
 20
0.0000000000000076
 30
0.0
 11
22.06800554638945
 21
35.00000000000001
 31
0.0
 70
    32
 13
4.5
 23
70.0
 33
0.0
 14
5.0
 24
0.0000000000000087
 34
0.0
 50
90.0
  0
LINE
  5
1932
  8
0
 10
-5.0
 20
-0.0000000000000016
 30
0.0
 11
5.0
 21
0.0000000000000087
 31
0.0
  0
DIMENSION
  5
19A3
  8
0
  2
*D3
 10
5.0
 20
-4.987251056840142
 30
0.0
 11
0.0
 21
-3.842903230753186
 31
0.0
 70
    32
  1
%%C<>
 13
-5.0
 23
-0.0000000000000016
 33
0.0
 14
5.0
 24
0.0000000000000087
 34
0.0
  0
DIMENSION
  5
1C12
  8
0
  2
*D4
 10
18.15380483761313
 20
0.0000000000000079
 30
0.0
 11
17.05972875065661
 21
16.0
 31
0.0
 70
    32
 13
4.5
 23
32.0
 33
0.0
 14
5.0
 24
0.0000000000000087
 34
0.0
 50
90.0
  0
DIMENSION
  5
1F68
  8
0
  2
*D5
 10
12.89362739467693
 20
0.0000000000000079
 30
0.0
 11
11.80091000337258
 21
11.0
 31
0.0
 70
    32
 13
4.5
 23
22.0
 33
0.0
 14
-0.2601774429362038
 24
0.0000000000000087
 34
0.0
 50
90.0
  0
ENDSEC
  0
EOF
