  0
SECTION
  2
HEADER
  9
$ACADVER
  1
AC1006
  9
$DWGCODEPAGE
  3
ansi_949
  9
$INSBASE
 10
0.0
 20
0.0
 30
0.0
  9
$EXTMIN
 10
-6.0
 20
-5.487251056840142
  9
$EXTMAX
 10
24.33796331661929
 20
84.80073221288973
  9
$LIMMIN
 10
0.0
 20
0.0
  9
$LIMMAX
 10
12.0
 20
9.0
  9
$ORTHOMODE
 70
     1
  9
$REGENMODE
 70
     1
  9
$FILLMODE
 70
     1
  9
$QTEXTMODE
 70
     0
  9
$MIRRTEXT
 70
     0
  9
$DRAGMODE
 70
     2
  9
$LTSCALE
 40
1.0
  9
$OSMODE
 70
    37
  9
$ATTMODE
 70
     1
  9
$TEXTSIZE
 40
0.2
  9
$TRACEWID
 40
0.05
  9
$TEXTSTYLE
  7
STANDARD
  9
$CLAYER
  8
0
  9
$CELTYPE
  6
BYLAYER
  9
$CECOLOR
 62
   256
  9
$DIMSCALE
 40
1.0
  9
$DIMASZ
 40
1.5
  9
$DIMEXO
 40
0.5
  9
$DIMDLI
 40
2.0
  9
$DIMRND
 40
0.0
  9
$DIMDLE
 40
0.0
  9
$DIMEXE
 40
0.5
  9
$DIMTP
 40
0.0
  9
$DIMTM
 40
0.0
  9
$DIMTXT
 40
2.0
  9
$DIMCEN
 40
0.0
  9
$DIMTSZ
 40
0.0
  9
$DIMTOL
 70
     0
  9
$DIMLIM
 70
     0
  9
$DIMTIH
 70
     0
  9
$DIMTOH
 70
     0
  9
$DIMSE1
 70
     0
  9
$DIMSE2
 70
     0
  9
$DIMTAD
 70
     1
  9
$DIMZIN
 70
     0
  9
$DIMBLK
  1

  9
$DIMASO
 70
     1
  9
$DIMSHO
 70
     1
  9
$DIMPOST
  1

  9
$DIMAPOST
  1

  9
$DIMALT
 70
     0
  9
$DIMALTD
 70
     2
  9
$DIMALTF
 40
25.4
  9
$DIMLFAC
 40
1.0
  9
$DIMTOFL
 70
     0
  9
$DIMTVP
 40
0.0
  9
$DIMTIX
 70
     0
  9
$DIMSOXD
 70
     0
  9
$DIMSAH
 70
     0
  9
$DIMBLK1
  1

  9
$DIMBLK2
  1

  9
$LUNITS
 70
     2
  9
$LUPREC
 70
     4
  9
$SKETCHINC
 40
0.1
  9
$FILLETRAD
 40
0.0
  9
$AUNITS
 70
     0
  9
$AUPREC
 70
     0
  9
$MENU
  1
.
  9
$ELEVATION
 40
0.0
  9
$THICKNESS
 40
0.0
  9
$LIMCHECK
 70
     0
  9
$CHAMFERA
 40
0.0
  9
$CHAMFERB
 40
0.0
  9
$SKPOLY
 70
     0
  9
$TDCREATE
 40
2453353.842125822
  9
$TDUPDATE
 40
2459506.325338611
  9
$TDINDWG
 40
0.0776713657
  9
$TDUSRTIMER
 40
0.0776365394
  9
$USRTIMER
 70
     1
  9
$ANGBASE
 50
0.0
  9
$ANGDIR
 70
     0
  9
$PDMODE
 70
     0
  9
$PDSIZE
 40
0.0
  9
$PLINEWID
 40
0.0
  9
$COORDS
 70
     1
  9
$SPLFRAME
 70
     0
  9
$SPLINETYPE
 70
     6
  9
$SPLINESEGS
 70
     8
  9
$ATTDIA
 70
     0
  9
$ATTREQ
 70
     1
  9
$HANDLING
 70
     1
  9
$HANDSEED
  5
20C6
  9
$SURFTAB1
 70
     6
  9
$SURFTAB2
 70
     6
  9
$SURFTYPE
 70
     6
  9
$SURFU
 70
     6
  9
$SURFV
 70
     6
  9
$UCSNAME
  2

  9
$UCSORG
 10
0.0
 20
0.0
 30
0.0
  9
$UCSXDIR
 10
1.0
 20
0.0
 30
0.0
  9
$UCSYDIR
 10
0.0
 20
1.0
 30
0.0
  9
$USERI1
 70
     0
  9
$USERI2
 70
     0
  9
$USERI3
 70
     0
  9
$USERI4
 70
     0
  9
$USERI5
 70
     0
  9
$USERR1
 40
0.0
  9
$USERR2
 40
0.0
  9
$USERR3
 40
0.0
  9
$USERR4
 40
0.0
  9
$USERR5
 40
0.0
  9
$WORLDVIEW
 70
     1
  0
ENDSEC
  0
SECTION
  2
TABLES
  0
TABLE
  2
VPORT
 70
     1
  0
VPORT
  2
*ACTIVE
 70
     0
 10
0.0
 20
0.0
 11
1.0
 21
1.0
 12
6.907233563555328
 22
39.6567405780248
 13
0.0
 23
0.0
 14
0.5
 24
0.5
 15
0.5
 25
0.5
 16
0.0
 26
0.0
 36
1.0
 17
0.0
 27
0.0
 37
0.0
 40
92.09374293512447
 41
1.701534170153416
 42
50.0
 43
0.0
 44
0.0
 50
0.0
 51
0.0
 71
    16
 72
  1000
 73
     1
 74
     3
 75
     0
 76
     0
 77
     0
 78
     0
  0
ENDTAB
  0
TABLE
  2
LTYPE
 70
     1
  0
LTYPE
  2
CONTINUOUS
 70
     0
  3
Solid line
 72
    65
 73
     0
 40
0.0
  0
ENDTAB
  0
TABLE
  2
LAYER
 70
     2
  0
LAYER
  2
0
 70
     0
 62
     7
  6
CONTINUOUS
  0
LAYER
  2
DEFPOINTS
 70
     0
 62
     7
  6
CONTINUOUS
  0
ENDTAB
  0
TABLE
  2
STYLE
 70
     2
  0
STYLE
  2
STANDARD
 70
     0
 40
0.0
 41
1.0
 50
0.0
 71
     0
 42
0.2
  3
IC-txt.shx
  4

  0
STYLE
  2
돋움
 70
     0
 40
0.0
 41
1.0
 50
0.0
 71
     0
 42
0.2
  3
Dotum.ttf
  4

  0
ENDTAB
  0
TABLE
  2
VIEW
 70
     0
  0
ENDTAB
  0
TABLE
  2
UCS
 70
     0
  0
ENDTAB
  0
ENDSEC
  0
SECTION
  2
BLOCKS
  0
BLOCK
  8
0
  2
*D1
 70
     1
 10
0.0
 20
0.0
 30
0.0
  0
POINT
  5
1FC0
  8
DEFPOINTS
  6
BYBLOCK
 62
     3
 10
-6.0
 20
79.5
 30
0.0
  0
POINT
  5
1FC1
  8
DEFPOINTS
  6
BYBLOCK
 62
     3
 10
6.0
 20
79.5
 30
0.0
  0
LINE
  5
1FC2
  8
0
  6
BYBLOCK
 62
     3
 10
-6.0
 20
80.0
 30
0.0
 11
-6.0
 21
83.10203656071582
 31
0.0
  0
LINE
  5
1FC3
  8
0
  6
BYBLOCK
 62
     3
 10
6.0
 20
80.0
 30
0.0
 11
6.0
 21
83.10203656071582
 31
0.0
  0
LINE
  5
1FC4
  8
0
  6
BYBLOCK
 62
     3
 10
-6.0
 20
82.60203656071582
 30
0.0
 11
6.0
 21
82.60203656071582
 31
0.0
  0
SOLID
  5
1FC5
  8
0
  6
BYBLOCK
 62
     3
 10
-6.0
 20
82.60203656071582
 30
0.0
 11
-4.5
 21
82.35203656071576
 31
0.0
 12
-4.5
 22
82.85203656071587
 32
0.0
 13
-4.5
 23
82.85203656071587
 33
0.0
  0
SOLID
  5
1FC6
  8
0
  6
BYBLOCK
 62
     3
 10
6.0
 20
82.60203656071582
 30
0.0
 11
4.5
 21
82.35203656071576
 31
0.0
 12
4.5
 22
82.85203656071587
 32
0.0
 13
4.5
 23
82.85203656071587
 33
0.0
  0
INSERT
  5
1FC7
  8
0
  6
BYBLOCK
 62
     3
  2
*X6
 10
0.0
 20
0.0
 30
0.0
  0
ENDBLK
  8
0
  0
BLOCK
  8
0
  2
*D2
 70
     1
 10
0.0
 20
0.0
 30
0.0
  0
POINT
  5
2081
  8
DEFPOINTS
  6
BYBLOCK
 62
     3
 10
5.5
 20
80.0
 30
0.0
  0
POINT
  5
2082
  8
DEFPOINTS
  6
BYBLOCK
 62
     3
 10
6.0
 20
0.0000000000000087
 30
0.0
  0
LINE
  5
2083
  8
0
  6
BYBLOCK
 62
     3
 10
6.0
 20
80.0
 30
0.0
 11
24.33796331661929
 21
80.0
 31
0.0
  0
LINE
  5
2084
  8
0
  6
BYBLOCK
 62
     3
 10
6.5
 20
0.0000000000000142
 30
0.0
 11
24.33796331661929
 21
0.0000000000000142
 31
0.0
  0
LINE
  5
2085
  8
0
  6
BYBLOCK
 62
     3
 10
23.83796331661929
 20
80.0
 30
0.0
 11
23.83796331661929
 21
0.0000000000000142
 31
0.0
  0
SOLID
  5
2086
  8
0
  6
BYBLOCK
 62
     3
 10
23.83796331661929
 20
80.0
 30
0.0
 11
23.58796331661924
 21
78.5
 31
0.0
 12
24.08796331661934
 22
78.5
 32
0.0
 13
24.08796331661934
 23
78.5
 33
0.0
  0
SOLID
  5
2087
  8
0
  6
BYBLOCK
 62
     3
 10
23.83796331661929
 20
0.0000000000000142
 30
0.0
 11
23.58796331661924
 21
1.500000000000014
 31
0.0
 12
24.08796331661934
 22
1.500000000000014
 32
0.0
 13
24.08796331661934
 23
1.500000000000014
 33
0.0
  0
TEXT
  5
2088
  8
0
  6
CONTINUOUS
 62
     3
 10
23.74388722966277
 20
38.38095238095239
 30
0.0
 40
2.0
  1
80
 50
90.0
  7
돋움
  0
ENDBLK
  8
0
  0
BLOCK
  8
0
  2
*D3
 70
     1
 10
0.0
 20
0.0
 30
0.0
  0
POINT
  5
1F90
  8
DEFPOINTS
  6
BYBLOCK
 62
     3
 10
-6.0
 20
-0.0000000000000016
 30
0.0
  0
POINT
  5
1F91
  8
DEFPOINTS
  6
BYBLOCK
 62
     3
 10
6.0
 20
0.0000000000000087
 30
0.0
  0
LINE
  5
1F92
  8
0
  6
BYBLOCK
 62
     3
 10
-6.0
 20
-0.5000000000000016
 30
0.0
 11
-6.0
 21
-5.487251056840142
 31
0.0
  0
LINE
  5
1F93
  8
0
  6
BYBLOCK
 62
     3
 10
6.0
 20
-0.4999999999999913
 30
0.0
 11
6.0
 21
-5.487251056840142
 31
0.0
  0
LINE
  5
1F94
  8
0
  6
BYBLOCK
 62
     3
 10
-6.0
 20
-4.987251056840142
 30
0.0
 11
6.0
 21
-4.987251056840142
 31
0.0
  0
SOLID
  5
1F95
  8
0
  6
BYBLOCK
 62
     3
 10
-6.0
 20
-4.987251056840142
 30
0.0
 11
-4.5
 21
-5.237251056840192
 31
0.0
 12
-4.5
 22
-4.737251056840092
 32
0.0
 13
-4.5
 23
-4.737251056840092
 33
0.0
  0
SOLID
  5
1F96
  8
0
  6
BYBLOCK
 62
     3
 10
6.0
 20
-4.987251056840142
 30
0.0
 11
4.5
 21
-5.237251056840192
 31
0.0
 12
4.5
 22
-4.737251056840092
 32
0.0
 13
4.5
 23
-4.737251056840092
 33
0.0
  0
INSERT
  5
1F97
  8
0
  6
BYBLOCK
 62
     3
  2
*X7
 10
0.0
 20
0.0
 30
0.0
  0
ENDBLK
  8
0
  0
BLOCK
  8
0
  2
*D4
 70
     1
 10
0.0
 20
0.0
 30
0.0
  0
POINT
  5
2071
  8
DEFPOINTS
  6
BYBLOCK
 62
     3
 10
5.5
 20
38.0
 30
0.0
  0
POINT
  5
2072
  8
DEFPOINTS
  6
BYBLOCK
 62
     3
 10
6.0
 20
0.0000000000000087
 30
0.0
  0
LINE
  5
2073
  8
0
  6
BYBLOCK
 62
     3
 10
6.0
 20
38.0
 30
0.0
 11
19.05954326781953
 21
38.0
 31
0.0
  0
LINE
  5
2074
  8
0
  6
BYBLOCK
 62
     3
 10
6.5
 20
0.0000000000000071
 30
0.0
 11
19.05954326781953
 21
0.0000000000000071
 31
0.0
  0
LINE
  5
2075
  8
0
  6
BYBLOCK
 62
     3
 10
18.55954326781953
 20
38.0
 30
0.0
 11
18.55954326781953
 21
0.0000000000000071
 31
0.0
  0
SOLID
  5
2076
  8
0
  6
BYBLOCK
 62
     3
 10
18.55954326781953
 20
38.0
 30
0.0
 11
18.30954326781948
 21
36.5
 31
0.0
 12
18.80954326781958
 22
36.5
 32
0.0
 13
18.80954326781958
 23
36.5
 33
0.0
  0
SOLID
  5
2077
  8
0
  6
BYBLOCK
 62
     3
 10
18.55954326781953
 20
0.0000000000000071
 30
0.0
 11
18.30954326781948
 21
1.500000000000007
 31
0.0
 12
18.80954326781958
 22
1.500000000000007
 32
0.0
 13
18.80954326781958
 23
1.500000000000007
 33
0.0
  0
TEXT
  5
2078
  8
0
  6
CONTINUOUS
 62
     3
 10
18.46546718086301
 20
17.38095238095239
 30
0.0
 40
2.0
  1
38
 50
90.0
  7
돋움
  0
ENDBLK
  8
0
  0
BLOCK
  8
0
  2
*D5
 70
     1
 10
0.0
 20
0.0
 30
0.0
  0
POINT
  5
205D
  8
DEFPOINTS
  6
BYBLOCK
 62
     3
 10
6.614430463013859
 20
26.0
 30
0.0
  0
POINT
  5
205E
  8
DEFPOINTS
  6
BYBLOCK
 62
     3
 10
0.0846588291040931
 20
0.0000000000000087
 30
0.0
  0
LINE
  5
205F
  8
0
  6
BYBLOCK
 62
     3
 10
7.114430463013859
 20
26.0
 30
0.0
 11
13.14420209692362
 21
26.0
 31
0.0
  0
LINE
  5
2060
  8
0
  6
BYBLOCK
 62
     3
 10
0.5846588291040931
 20
0.0000000000000071
 30
0.0
 11
13.14420209692362
 21
0.0000000000000071
 31
0.0
  0
LINE
  5
2061
  8
0
  6
BYBLOCK
 62
     3
 10
12.64420209692362
 20
26.0
 30
0.0
 11
12.64420209692362
 21
0.0000000000000071
 31
0.0
  0
SOLID
  5
2062
  8
0
  6
BYBLOCK
 62
     3
 10
12.64420209692362
 20
26.0
 30
0.0
 11
12.39420209692357
 21
24.5
 31
0.0
 12
12.89420209692367
 22
24.5
 32
0.0
 13
12.89420209692367
 23
24.5
 33
0.0
  0
SOLID
  5
2063
  8
0
  6
BYBLOCK
 62
     3
 10
12.64420209692362
 20
0.0000000000000071
 30
0.0
 11
12.39420209692357
 21
1.500000000000007
 31
0.0
 12
12.89420209692367
 22
1.500000000000007
 32
0.0
 13
12.89420209692367
 23
1.500000000000007
 33
0.0
  0
TEXT
  5
2064
  8
0
  6
CONTINUOUS
 62
     3
 10
12.54876731431493
 20
11.42857142857143
 30
0.0
 40
2.0
  1
26
 50
90.0
  7
돋움
  0
ENDBLK
  8
0
  0
BLOCK
  8
0
  2
*X6
 70
     1
 10
0.0
 20
0.0
 30
0.0
  0
TEXT
  5
20BD
  8
0
  6
CONTINUOUS
 62
     3
 10
-2.664014259876659
 20
82.74638438680277
 30
0.0
 40
2.0
  1
\U+2205
  7
돋움
  0
TEXT
  5
20BE
  8
0
  6
CONTINUOUS
 62
     3
 10
-0.8544904503528494
 20
82.74638438680277
 30
0.0
 40
2.0
  1
12
  7
돋움
  0
ENDBLK
  8
0
  0
BLOCK
  8
0
  2
*X7
 70
     1
 10
0.0
 20
0.0
 30
0.0
  0
TEXT
  5
20C0
  8
0
  6
CONTINUOUS
 62
     3
 10
-2.333333333333333
 20
-4.842903230753185
 30
0.0
 40
2.0
  1
\U+2205
  7
돋움
  0
TEXT
  5
20C1
  8
0
  6
CONTINUOUS
 62
     3
 10
-0.5238095238095237
 20
-4.842903230753185
 30
0.0
 40
2.0
  1
12
  7
돋움
  0
ENDBLK
  8
0
  0
ENDSEC
  0
SECTION
  2
ENTITIES
  0
LINE
  5
394
  8
0
 10
-5.5
 20
80.0
 30
0.0
 11
5.5
 21
80.0
 31
0.0
  0
LINE
  5
398
  8
0
 10
-6.0
 20
-0.0000000000000016
 30
0.0
 11
-6.0
 21
79.5
 31
0.0
  0
LINE
  5
399
  8
0
 10
6.0
 20
0.0000000000000087
 30
0.0
 11
6.0
 21
79.5
 31
0.0
  0
LINE
  5
39C
  8
0
 10
-6.0
 20
79.5
 30
0.0
 11
6.0
 21
79.5
 31
0.0
  0
LINE
  5
39D
  8
0
 10
-6.0
 20
79.5
 30
0.0
 11
-5.5
 21
80.0
 31
0.0
  0
LINE
  5
39E
  8
0
 10
6.0
 20
79.5
 30
0.0
 11
5.5
 21
80.0
 31
0.0
  0
DIMENSION
  5
39F
  8
0
  2
*D1
 10
6.0
 20
82.60203656071582
 30
0.0
 11
-0.3306809265433256
 21
82.60203656071582
 31
0.0
 70
   160
  1
%%c<>
 13
-6.0
 23
79.5
 33
0.0
 14
6.0
 24
79.5
 34
0.0
  0
DIMENSION
  5
89F
  8
0
  2
*D2
 10
23.83796331661929
 20
0.0000000000000076
 30
0.0
 11
22.74388722966277
 21
40.00000000000001
 31
0.0
 70
    32
 13
5.5
 23
80.0
 33
0.0
 14
6.0
 24
0.0000000000000087
 34
0.0
 50
90.0
  0
LINE
  5
1932
  8
0
 10
-6.0
 20
-0.0000000000000016
 30
0.0
 11
6.0
 21
0.0000000000000087
 31
0.0
  0
DIMENSION
  5
19A3
  8
0
  2
*D3
 10
6.0
 20
-4.987251056840142
 30
0.0
 11
0.0
 21
-3.842903230753186
 31
0.0
 70
    32
  1
%%C<>
 13
-6.0
 23
-0.0000000000000016
 33
0.0
 14
6.0
 24
0.0000000000000087
 34
0.0
  0
DIMENSION
  5
1C12
  8
0
  2
*D4
 10
18.55954326781953
 20
0.0000000000000079
 30
0.0
 11
17.46546718086301
 21
19.0
 31
0.0
 70
    32
 13
5.5
 23
38.0
 33
0.0
 14
6.0
 24
0.0000000000000087
 34
0.0
 50
90.0
  0
DIMENSION
  5
2005
  8
0
  2
*D5
 10
12.64420209692362
 20
0.0000000000000079
 30
0.0
 11
11.54876731431493
 21
13.0
 31
0.0
 70
    32
 13
6.614430463013859
 23
26.0
 33
0.0
 14
0.0846588291040931
 24
0.0000000000000087
 34
0.0
 50
90.0
  0
ENDSEC
  0
EOF
