  0
SECTION
  2
HEADER
  9
$ACADVER
  1
AC1006
  9
$DWGCODEPAGE
  3
ansi_949
  9
$INSBASE
 10
0.0
 20
0.0
 30
0.0
  9
$EXTMIN
 10
-8.0
 20
-5.487251056840142
  9
$EXTMAX
 10
26.96780430268367
 20
94.80073221288973
  9
$LIMMIN
 10
0.0
 20
0.0
  9
$LIMMAX
 10
12.0
 20
9.0
  9
$ORTHOMODE
 70
     1
  9
$REGENMODE
 70
     1
  9
$FILLMODE
 70
     1
  9
$QTEXTMODE
 70
     0
  9
$MIRRTEXT
 70
     0
  9
$DRAGMODE
 70
     2
  9
$LTSCALE
 40
1.0
  9
$OSMODE
 70
    37
  9
$ATTMODE
 70
     1
  9
$TEXTSIZE
 40
0.2
  9
$TRACEWID
 40
0.05
  9
$TEXTSTYLE
  7
STANDARD
  9
$CLAYER
  8
0
  9
$CELTYPE
  6
BYLAYER
  9
$CECOLOR
 62
   256
  9
$DIMSCALE
 40
1.0
  9
$DIMASZ
 40
1.5
  9
$DIMEXO
 40
0.5
  9
$DIMDLI
 40
2.0
  9
$DIMRND
 40
0.0
  9
$DIMDLE
 40
0.0
  9
$DIMEXE
 40
0.5
  9
$DIMTP
 40
0.0
  9
$DIMTM
 40
0.0
  9
$DIMTXT
 40
2.0
  9
$DIMCEN
 40
0.0
  9
$DIMTSZ
 40
0.0
  9
$DIMTOL
 70
     0
  9
$DIMLIM
 70
     0
  9
$DIMTIH
 70
     0
  9
$DIMTOH
 70
     0
  9
$DIMSE1
 70
     0
  9
$DIMSE2
 70
     0
  9
$DIMTAD
 70
     1
  9
$DIMZIN
 70
     0
  9
$DIMBLK
  1

  9
$DIMASO
 70
     1
  9
$DIMSHO
 70
     1
  9
$DIMPOST
  1

  9
$DIMAPOST
  1

  9
$DIMALT
 70
     0
  9
$DIMALTD
 70
     2
  9
$DIMALTF
 40
25.4
  9
$DIMLFAC
 40
1.0
  9
$DIMTOFL
 70
     0
  9
$DIMTVP
 40
0.0
  9
$DIMTIX
 70
     0
  9
$DIMSOXD
 70
     0
  9
$DIMSAH
 70
     0
  9
$DIMBLK1
  1

  9
$DIMBLK2
  1

  9
$LUNITS
 70
     2
  9
$LUPREC
 70
     4
  9
$SKETCHINC
 40
0.1
  9
$FILLETRAD
 40
0.0
  9
$AUNITS
 70
     0
  9
$AUPREC
 70
     0
  9
$MENU
  1
.
  9
$ELEVATION
 40
0.0
  9
$THICKNESS
 40
0.0
  9
$LIMCHECK
 70
     0
  9
$CHAMFERA
 40
0.0
  9
$CHAMFERB
 40
0.0
  9
$SKPOLY
 70
     0
  9
$TDCREATE
 40
2453353.842125822
  9
$TDUPDATE
 40
2459524.176865197
  9
$TDINDWG
 40
0.0780879861
  9
$TDUSRTIMER
 40
0.0780532176
  9
$USRTIMER
 70
     1
  9
$ANGBASE
 50
0.0
  9
$ANGDIR
 70
     0
  9
$PDMODE
 70
     0
  9
$PDSIZE
 40
0.0
  9
$PLINEWID
 40
0.0
  9
$COORDS
 70
     1
  9
$SPLFRAME
 70
     0
  9
$SPLINETYPE
 70
     6
  9
$SPLINESEGS
 70
     8
  9
$ATTDIA
 70
     0
  9
$ATTREQ
 70
     1
  9
$HANDLING
 70
     1
  9
$HANDSEED
  5
2146
  9
$SURFTAB1
 70
     6
  9
$SURFTAB2
 70
     6
  9
$SURFTYPE
 70
     6
  9
$SURFU
 70
     6
  9
$SURFV
 70
     6
  9
$UCSNAME
  2

  9
$UCSORG
 10
0.0
 20
0.0
 30
0.0
  9
$UCSXDIR
 10
1.0
 20
0.0
 30
0.0
  9
$UCSYDIR
 10
0.0
 20
1.0
 30
0.0
  9
$USERI1
 70
     0
  9
$USERI2
 70
     0
  9
$USERI3
 70
     0
  9
$USERI4
 70
     0
  9
$USERI5
 70
     0
  9
$USERR1
 40
0.0
  9
$USERR2
 40
0.0
  9
$USERR3
 40
0.0
  9
$USERR4
 40
0.0
  9
$USERR5
 40
0.0
  9
$WORLDVIEW
 70
     1
  0
ENDSEC
  0
SECTION
  2
TABLES
  0
TABLE
  2
VPORT
 70
     1
  0
VPORT
  2
*ACTIVE
 70
     0
 10
0.0
 20
0.0
 11
1.0
 21
1.0
 12
9.483902151341836
 22
44.6567405780248
 13
0.0
 23
0.0
 14
0.5
 24
0.5
 15
0.5
 25
0.5
 16
0.0
 26
0.0
 36
1.0
 17
0.0
 27
0.0
 37
0.0
 40
102.2937429351245
 41
1.701534170153416
 42
50.0
 43
0.0
 44
0.0
 50
0.0
 51
0.0
 71
    16
 72
  1000
 73
     1
 74
     3
 75
     0
 76
     0
 77
     0
 78
     0
  0
ENDTAB
  0
TABLE
  2
LTYPE
 70
     1
  0
LTYPE
  2
CONTINUOUS
 70
     0
  3
Solid line
 72
    65
 73
     0
 40
0.0
  0
ENDTAB
  0
TABLE
  2
LAYER
 70
     2
  0
LAYER
  2
0
 70
     0
 62
     7
  6
CONTINUOUS
  0
LAYER
  2
DEFPOINTS
 70
     0
 62
     7
  6
CONTINUOUS
  0
ENDTAB
  0
TABLE
  2
STYLE
 70
     2
  0
STYLE
  2
STANDARD
 70
     0
 40
0.0
 41
1.0
 50
0.0
 71
     0
 42
0.2
  3
IC-txt.shx
  4

  0
STYLE
  2
돋움
 70
     0
 40
0.0
 41
1.0
 50
0.0
 71
     0
 42
0.2
  3
Dotum.ttf
  4

  0
ENDTAB
  0
TABLE
  2
VIEW
 70
     0
  0
ENDTAB
  0
TABLE
  2
UCS
 70
     0
  0
ENDTAB
  0
ENDSEC
  0
SECTION
  2
BLOCKS
  0
BLOCK
  8
0
  2
*D1
 70
     1
 10
0.0
 20
0.0
 30
0.0
  0
POINT
  5
2040
  8
DEFPOINTS
  6
BYBLOCK
 62
     3
 10
-8.0
 20
89.5
 30
0.0
  0
POINT
  5
2041
  8
DEFPOINTS
  6
BYBLOCK
 62
     3
 10
8.0
 20
89.5
 30
0.0
  0
LINE
  5
2042
  8
0
  6
BYBLOCK
 62
     3
 10
-8.0
 20
90.0
 30
0.0
 11
-8.0
 21
93.10203656071582
 31
0.0
  0
LINE
  5
2043
  8
0
  6
BYBLOCK
 62
     3
 10
8.0
 20
90.0
 30
0.0
 11
8.0
 21
93.10203656071582
 31
0.0
  0
LINE
  5
2044
  8
0
  6
BYBLOCK
 62
     3
 10
-8.0
 20
92.60203656071582
 30
0.0
 11
8.0
 21
92.60203656071582
 31
0.0
  0
SOLID
  5
2045
  8
0
  6
BYBLOCK
 62
     3
 10
-8.0
 20
92.60203656071582
 30
0.0
 11
-6.5
 21
92.35203656071576
 31
0.0
 12
-6.5
 22
92.85203656071587
 32
0.0
 13
-6.5
 23
92.85203656071587
 33
0.0
  0
SOLID
  5
2046
  8
0
  6
BYBLOCK
 62
     3
 10
8.0
 20
92.60203656071582
 30
0.0
 11
6.5
 21
92.35203656071576
 31
0.0
 12
6.5
 22
92.85203656071587
 32
0.0
 13
6.5
 23
92.85203656071587
 33
0.0
  0
INSERT
  5
2047
  8
0
  6
BYBLOCK
 62
     3
  2
*X6
 10
0.0
 20
0.0
 30
0.0
  0
ENDBLK
  8
0
  0
BLOCK
  8
0
  2
*D2
 70
     1
 10
0.0
 20
0.0
 30
0.0
  0
POINT
  5
2101
  8
DEFPOINTS
  6
BYBLOCK
 62
     3
 10
7.5
 20
90.0
 30
0.0
  0
POINT
  5
2102
  8
DEFPOINTS
  6
BYBLOCK
 62
     3
 10
8.0
 20
0.0000000000000087
 30
0.0
  0
LINE
  5
2103
  8
0
  6
BYBLOCK
 62
     3
 10
8.0
 20
90.0
 30
0.0
 11
26.96780430268367
 21
90.0
 31
0.0
  0
LINE
  5
2104
  8
0
  6
BYBLOCK
 62
     3
 10
8.5
 20
0.0000000000000142
 30
0.0
 11
26.96780430268367
 21
0.0000000000000142
 31
0.0
  0
LINE
  5
2105
  8
0
  6
BYBLOCK
 62
     3
 10
26.46780430268367
 20
90.0
 30
0.0
 11
26.46780430268367
 21
0.0000000000000142
 31
0.0
  0
SOLID
  5
2106
  8
0
  6
BYBLOCK
 62
     3
 10
26.46780430268367
 20
90.0
 30
0.0
 11
26.21780430268362
 21
88.5
 31
0.0
 12
26.71780430268372
 22
88.5
 32
0.0
 13
26.71780430268372
 23
88.5
 33
0.0
  0
SOLID
  5
2107
  8
0
  6
BYBLOCK
 62
     3
 10
26.46780430268367
 20
0.0000000000000142
 30
0.0
 11
26.21780430268362
 21
1.500000000000014
 31
0.0
 12
26.71780430268372
 22
1.500000000000014
 32
0.0
 13
26.71780430268372
 23
1.500000000000014
 33
0.0
  0
TEXT
  5
2108
  8
0
  6
CONTINUOUS
 62
     3
 10
26.37372821572715
 20
43.38095238095239
 30
0.0
 40
2.0
  1
90
 50
90.0
  7
돋움
  0
ENDBLK
  8
0
  0
BLOCK
  8
0
  2
*D3
 70
     1
 10
0.0
 20
0.0
 30
0.0
  0
POINT
  5
2020
  8
DEFPOINTS
  6
BYBLOCK
 62
     3
 10
-8.0
 20
-0.0000000000000016
 30
0.0
  0
POINT
  5
2021
  8
DEFPOINTS
  6
BYBLOCK
 62
     3
 10
8.0
 20
0.0000000000000087
 30
0.0
  0
LINE
  5
2022
  8
0
  6
BYBLOCK
 62
     3
 10
-8.0
 20
-0.5000000000000016
 30
0.0
 11
-8.0
 21
-5.487251056840142
 31
0.0
  0
LINE
  5
2023
  8
0
  6
BYBLOCK
 62
     3
 10
8.0
 20
-0.4999999999999913
 30
0.0
 11
8.0
 21
-5.487251056840142
 31
0.0
  0
LINE
  5
2024
  8
0
  6
BYBLOCK
 62
     3
 10
-8.0
 20
-4.987251056840142
 30
0.0
 11
8.0
 21
-4.987251056840142
 31
0.0
  0
SOLID
  5
2025
  8
0
  6
BYBLOCK
 62
     3
 10
-8.0
 20
-4.987251056840142
 30
0.0
 11
-6.5
 21
-5.237251056840192
 31
0.0
 12
-6.5
 22
-4.737251056840092
 32
0.0
 13
-6.5
 23
-4.737251056840092
 33
0.0
  0
SOLID
  5
2026
  8
0
  6
BYBLOCK
 62
     3
 10
8.0
 20
-4.987251056840142
 30
0.0
 11
6.5
 21
-5.237251056840192
 31
0.0
 12
6.5
 22
-4.737251056840092
 32
0.0
 13
6.5
 23
-4.737251056840092
 33
0.0
  0
INSERT
  5
2027
  8
0
  6
BYBLOCK
 62
     3
  2
*X7
 10
0.0
 20
0.0
 30
0.0
  0
ENDBLK
  8
0
  0
BLOCK
  8
0
  2
*D4
 70
     1
 10
0.0
 20
0.0
 30
0.0
  0
POINT
  5
20F1
  8
DEFPOINTS
  6
BYBLOCK
 62
     3
 10
7.5
 20
45.0
 30
0.0
  0
POINT
  5
20F2
  8
DEFPOINTS
  6
BYBLOCK
 62
     3
 10
8.0
 20
0.0000000000000087
 30
0.0
  0
LINE
  5
20F3
  8
0
  6
BYBLOCK
 62
     3
 10
8.0
 20
45.0
 30
0.0
 11
21.13588144682425
 21
45.0
 31
0.0
  0
LINE
  5
20F4
  8
0
  6
BYBLOCK
 62
     3
 10
8.5
 20
0.0000000000000071
 30
0.0
 11
21.13588144682425
 21
0.0000000000000071
 31
0.0
  0
LINE
  5
20F5
  8
0
  6
BYBLOCK
 62
     3
 10
20.63588144682425
 20
45.0
 30
0.0
 11
20.63588144682425
 21
0.0000000000000071
 31
0.0
  0
SOLID
  5
20F6
  8
0
  6
BYBLOCK
 62
     3
 10
20.63588144682425
 20
45.0
 30
0.0
 11
20.3858814468242
 21
43.5
 31
0.0
 12
20.8858814468243
 22
43.5
 32
0.0
 13
20.8858814468243
 23
43.5
 33
0.0
  0
SOLID
  5
20F7
  8
0
  6
BYBLOCK
 62
     3
 10
20.63588144682425
 20
0.0000000000000071
 30
0.0
 11
20.3858814468242
 21
1.500000000000007
 31
0.0
 12
20.8858814468243
 22
1.500000000000007
 32
0.0
 13
20.8858814468243
 23
1.500000000000007
 33
0.0
  0
TEXT
  5
20F8
  8
0
  6
CONTINUOUS
 62
     3
 10
20.54180535986773
 20
20.88095238095238
 30
0.0
 40
2.0
  1
45
 50
90.0
  7
돋움
  0
ENDBLK
  8
0
  0
BLOCK
  8
0
  2
*D5
 70
     1
 10
0.0
 20
0.0
 30
0.0
  0
POINT
  5
20D9
  8
DEFPOINTS
  6
BYBLOCK
 62
     3
 10
8.0
 20
32.0
 30
0.0
  0
POINT
  5
20DA
  8
DEFPOINTS
  6
BYBLOCK
 62
     3
 10
2.58899596564833
 20
0.0000000000000087
 30
0.0
  0
LINE
  5
20DB
  8
0
  6
BYBLOCK
 62
     3
 10
8.5
 20
32.0
 30
0.0
 11
15.72487741247258
 21
32.0
 31
0.0
  0
LINE
  5
20DC
  8
0
  6
BYBLOCK
 62
     3
 10
3.08899596564833
 20
0.0000000000000071
 30
0.0
 11
15.72487741247258
 21
0.0000000000000071
 31
0.0
  0
LINE
  5
20DD
  8
0
  6
BYBLOCK
 62
     3
 10
15.22487741247258
 20
32.0
 30
0.0
 11
15.22487741247258
 21
0.0000000000000071
 31
0.0
  0
SOLID
  5
20DE
  8
0
  6
BYBLOCK
 62
     3
 10
15.22487741247258
 20
32.0
 30
0.0
 11
14.97487741247253
 21
30.5
 31
0.0
 12
15.47487741247263
 22
30.5
 32
0.0
 13
15.47487741247263
 23
30.5
 33
0.0
  0
SOLID
  5
20DF
  8
0
  6
BYBLOCK
 62
     3
 10
15.22487741247258
 20
0.0000000000000071
 30
0.0
 11
14.97487741247253
 21
1.500000000000007
 31
0.0
 12
15.47487741247263
 22
1.500000000000007
 32
0.0
 13
15.47487741247263
 23
1.500000000000007
 33
0.0
  0
TEXT
  5
20E0
  8
0
  6
CONTINUOUS
 62
     3
 10
15.13080132551606
 20
14.38095238095238
 30
0.0
 40
2.0
  1
32
 50
90.0
  7
돋움
  0
ENDBLK
  8
0
  0
BLOCK
  8
0
  2
*X6
 70
     1
 10
0.0
 20
0.0
 30
0.0
  0
TEXT
  5
213D
  8
0
  6
CONTINUOUS
 62
     3
 10
-2.616395212257611
 20
92.74638438680277
 30
0.0
 40
2.0
  1
\U+2205
  7
돋움
  0
TEXT
  5
213E
  8
0
  6
CONTINUOUS
 62
     3
 10
-0.806871402733802
 20
92.74638438680277
 30
0.0
 40
2.0
  1
16
  7
돋움
  0
ENDBLK
  8
0
  0
BLOCK
  8
0
  2
*X7
 70
     1
 10
0.0
 20
0.0
 30
0.0
  0
TEXT
  5
2140
  8
0
  6
CONTINUOUS
 62
     3
 10
-2.285714285714286
 20
-4.842903230753185
 30
0.0
 40
2.0
  1
\U+2205
  7
돋움
  0
TEXT
  5
2141
  8
0
  6
CONTINUOUS
 62
     3
 10
-0.4761904761904763
 20
-4.842903230753185
 30
0.0
 40
2.0
  1
16
  7
돋움
  0
ENDBLK
  8
0
  0
ENDSEC
  0
SECTION
  2
ENTITIES
  0
LINE
  5
394
  8
0
 10
-7.5
 20
90.0
 30
0.0
 11
7.5
 21
90.0
 31
0.0
  0
LINE
  5
398
  8
0
 10
-8.0
 20
-0.0000000000000016
 30
0.0
 11
-8.0
 21
89.5
 31
0.0
  0
LINE
  5
399
  8
0
 10
8.0
 20
0.0000000000000087
 30
0.0
 11
8.0
 21
89.5
 31
0.0
  0
LINE
  5
39C
  8
0
 10
-8.0
 20
89.5
 30
0.0
 11
8.0
 21
89.5
 31
0.0
  0
LINE
  5
39D
  8
0
 10
-8.0
 20
89.5
 30
0.0
 11
-7.5
 21
90.0
 31
0.0
  0
LINE
  5
39E
  8
0
 10
8.0
 20
89.5
 30
0.0
 11
7.5
 21
90.0
 31
0.0
  0
DIMENSION
  5
39F
  8
0
  2
*D1
 10
8.0
 20
92.60203656071582
 30
0.0
 11
-0.3306809265433256
 21
92.60203656071582
 31
0.0
 70
   160
  1
%%c<>
 13
-8.0
 23
89.5
 33
0.0
 14
8.0
 24
89.5
 34
0.0
  0
DIMENSION
  5
89F
  8
0
  2
*D2
 10
26.46780430268367
 20
0.0000000000000076
 30
0.0
 11
25.37372821572715
 21
45.00000000000001
 31
0.0
 70
    32
 13
7.5
 23
90.0
 33
0.0
 14
8.0
 24
0.0000000000000087
 34
0.0
 50
90.0
  0
LINE
  5
1932
  8
0
 10
-8.0
 20
-0.0000000000000016
 30
0.0
 11
8.0
 21
0.0000000000000087
 31
0.0
  0
DIMENSION
  5
19A3
  8
0
  2
*D3
 10
8.0
 20
-4.987251056840142
 30
0.0
 11
0.0
 21
-3.842903230753186
 31
0.0
 70
    32
  1
%%C<>
 13
-8.0
 23
-0.0000000000000016
 33
0.0
 14
8.0
 24
0.0000000000000087
 34
0.0
  0
DIMENSION
  5
1C12
  8
0
  2
*D4
 10
20.63588144682425
 20
0.0000000000000079
 30
0.0
 11
19.54180535986773
 21
22.5
 31
0.0
 70
    32
 13
7.5
 23
45.0
 33
0.0
 14
8.0
 24
0.0000000000000087
 34
0.0
 50
90.0
  0
DIMENSION
  5
2095
  8
0
  2
*D5
 10
15.22487741247258
 20
0.0000000000000079
 30
0.0
 11
14.13080132551606
 21
16.0
 31
0.0
 70
    32
 13
8.0
 23
32.0
 33
0.0
 14
2.58899596564833
 24
0.0000000000000087
 34
0.0
 50
90.0
  0
ENDSEC
  0
EOF
