  0
SECTION
  2
HEADER
  9
$ACADVER
  1
AC1006
  9
$DWGCODEPAGE
  3
ansi_949
  9
$INSBASE
 10
0.0
 20
0.0
 30
0.0
  9
$EXTMIN
 10
-10.0
 20
-8.037487042774954
  9
$EXTMAX
 10
30.61509642293683
 20
104.8007322128897
  9
$LIMMIN
 10
0.0
 20
0.0
  9
$LIMMAX
 10
12.0
 20
9.0
  9
$ORTHOMODE
 70
     1
  9
$REGENMODE
 70
     1
  9
$FILLMODE
 70
     1
  9
$QTEXTMODE
 70
     0
  9
$MIRRTEXT
 70
     0
  9
$DRAGMODE
 70
     2
  9
$LTSCALE
 40
1.0
  9
$OSMODE
 70
    37
  9
$ATTMODE
 70
     1
  9
$TEXTSIZE
 40
0.2
  9
$TRACEWID
 40
0.05
  9
$TEXTSTYLE
  7
STANDARD
  9
$CLAYER
  8
0
  9
$CELTYPE
  6
BYLAYER
  9
$CECOLOR
 62
   256
  9
$DIMSCALE
 40
1.0
  9
$DIMASZ
 40
1.5
  9
$DIMEXO
 40
0.5
  9
$DIMDLI
 40
2.0
  9
$DIMRND
 40
0.0
  9
$DIMDLE
 40
0.0
  9
$DIMEXE
 40
0.5
  9
$DIMTP
 40
0.0
  9
$DIMTM
 40
0.0
  9
$DIMTXT
 40
2.0
  9
$DIMCEN
 40
0.0
  9
$DIMTSZ
 40
0.0
  9
$DIMTOL
 70
     0
  9
$DIMLIM
 70
     0
  9
$DIMTIH
 70
     0
  9
$DIMTOH
 70
     0
  9
$DIMSE1
 70
     0
  9
$DIMSE2
 70
     0
  9
$DIMTAD
 70
     1
  9
$DIMZIN
 70
     0
  9
$DIMBLK
  1

  9
$DIMASO
 70
     1
  9
$DIMSHO
 70
     1
  9
$DIMPOST
  1

  9
$DIMAPOST
  1

  9
$DIMALT
 70
     0
  9
$DIMALTD
 70
     2
  9
$DIMALTF
 40
25.4
  9
$DIMLFAC
 40
1.0
  9
$DIMTOFL
 70
     0
  9
$DIMTVP
 40
0.0
  9
$DIMTIX
 70
     0
  9
$DIMSOXD
 70
     0
  9
$DIMSAH
 70
     0
  9
$DIMBLK1
  1

  9
$DIMBLK2
  1

  9
$LUNITS
 70
     2
  9
$LUPREC
 70
     4
  9
$SKETCHINC
 40
0.1
  9
$FILLETRAD
 40
0.0
  9
$AUNITS
 70
     0
  9
$AUPREC
 70
     0
  9
$MENU
  1
.
  9
$ELEVATION
 40
0.0
  9
$THICKNESS
 40
0.0
  9
$LIMCHECK
 70
     0
  9
$CHAMFERA
 40
0.0
  9
$CHAMFERB
 40
0.0
  9
$SKPOLY
 70
     0
  9
$TDCREATE
 40
2453353.842125822
  9
$TDUPDATE
 40
2459506.325470521
  9
$TDINDWG
 40
0.0785278472
  9
$TDUSRTIMER
 40
0.0784930324
  9
$USRTIMER
 70
     1
  9
$ANGBASE
 50
0.0
  9
$ANGDIR
 70
     0
  9
$PDMODE
 70
     0
  9
$PDSIZE
 40
0.0
  9
$PLINEWID
 40
0.0
  9
$COORDS
 70
     1
  9
$SPLFRAME
 70
     0
  9
$SPLINETYPE
 70
     6
  9
$SPLINESEGS
 70
     8
  9
$ATTDIA
 70
     0
  9
$ATTREQ
 70
     1
  9
$HANDLING
 70
     1
  9
$HANDSEED
  5
223D
  9
$SURFTAB1
 70
     6
  9
$SURFTAB2
 70
     6
  9
$SURFTYPE
 70
     6
  9
$SURFU
 70
     6
  9
$SURFV
 70
     6
  9
$UCSNAME
  2

  9
$UCSORG
 10
0.0
 20
0.0
 30
0.0
  9
$UCSXDIR
 10
1.0
 20
0.0
 30
0.0
  9
$UCSYDIR
 10
0.0
 20
1.0
 30
0.0
  9
$USERI1
 70
     0
  9
$USERI2
 70
     0
  9
$USERI3
 70
     0
  9
$USERI4
 70
     0
  9
$USERI5
 70
     0
  9
$USERR1
 40
0.0
  9
$USERR2
 40
0.0
  9
$USERR3
 40
0.0
  9
$USERR4
 40
0.0
  9
$USERR5
 40
0.0
  9
$WORLDVIEW
 70
     1
  0
ENDSEC
  0
SECTION
  2
TABLES
  0
TABLE
  2
VPORT
 70
     1
  0
VPORT
  2
*ACTIVE
 70
     0
 10
0.0
 20
0.0
 11
1.0
 21
1.0
 12
10.30754821146841
 22
48.38162258505739
 13
0.0
 23
0.0
 14
0.5
 24
0.5
 15
0.5
 25
0.5
 16
0.0
 26
0.0
 36
1.0
 17
0.0
 27
0.0
 37
0.0
 40
115.094983640778
 41
1.701534170153416
 42
50.0
 43
0.0
 44
0.0
 50
0.0
 51
0.0
 71
    16
 72
  1000
 73
     1
 74
     3
 75
     0
 76
     0
 77
     0
 78
     0
  0
ENDTAB
  0
TABLE
  2
LTYPE
 70
     1
  0
LTYPE
  2
CONTINUOUS
 70
     0
  3
Solid line
 72
    65
 73
     0
 40
0.0
  0
ENDTAB
  0
TABLE
  2
LAYER
 70
     2
  0
LAYER
  2
0
 70
     0
 62
     7
  6
CONTINUOUS
  0
LAYER
  2
DEFPOINTS
 70
     0
 62
     7
  6
CONTINUOUS
  0
ENDTAB
  0
TABLE
  2
STYLE
 70
     2
  0
STYLE
  2
STANDARD
 70
     0
 40
0.0
 41
1.0
 50
0.0
 71
     0
 42
0.2
  3
IC-txt.shx
  4

  0
STYLE
  2
돋움
 70
     0
 40
0.0
 41
1.0
 50
0.0
 71
     0
 42
0.2
  3
Dotum.ttf
  4

  0
ENDTAB
  0
TABLE
  2
VIEW
 70
     0
  0
ENDTAB
  0
TABLE
  2
UCS
 70
     0
  0
ENDTAB
  0
ENDSEC
  0
SECTION
  2
BLOCKS
  0
BLOCK
  8
0
  2
*D1
 70
     1
 10
0.0
 20
0.0
 30
0.0
  0
POINT
  5
20E0
  8
DEFPOINTS
  6
BYBLOCK
 62
     3
 10
-10.0
 20
99.5
 30
0.0
  0
POINT
  5
20E1
  8
DEFPOINTS
  6
BYBLOCK
 62
     3
 10
10.0
 20
99.5
 30
0.0
  0
LINE
  5
20E2
  8
0
  6
BYBLOCK
 62
     3
 10
-10.0
 20
100.0
 30
0.0
 11
-10.0
 21
103.1020365607158
 31
0.0
  0
LINE
  5
20E3
  8
0
  6
BYBLOCK
 62
     3
 10
10.0
 20
100.0
 30
0.0
 11
10.0
 21
103.1020365607158
 31
0.0
  0
LINE
  5
20E4
  8
0
  6
BYBLOCK
 62
     3
 10
-10.0
 20
102.6020365607158
 30
0.0
 11
10.0
 21
102.6020365607158
 31
0.0
  0
SOLID
  5
20E5
  8
0
  6
BYBLOCK
 62
     3
 10
-10.0
 20
102.6020365607158
 30
0.0
 11
-8.5
 21
102.3520365607158
 31
0.0
 12
-8.5
 22
102.8520365607159
 32
0.0
 13
-8.5
 23
102.8520365607159
 33
0.0
  0
SOLID
  5
20E6
  8
0
  6
BYBLOCK
 62
     3
 10
10.0
 20
102.6020365607158
 30
0.0
 11
8.5
 21
102.3520365607158
 31
0.0
 12
8.5
 22
102.8520365607159
 32
0.0
 13
8.5
 23
102.8520365607159
 33
0.0
  0
INSERT
  5
20E7
  8
0
  6
BYBLOCK
 62
     3
  2
*X6
 10
0.0
 20
0.0
 30
0.0
  0
ENDBLK
  8
0
  0
BLOCK
  8
0
  2
*D2
 70
     1
 10
0.0
 20
0.0
 30
0.0
  0
POINT
  5
21E8
  8
DEFPOINTS
  6
BYBLOCK
 62
     3
 10
9.5
 20
100.0
 30
0.0
  0
POINT
  5
21E9
  8
DEFPOINTS
  6
BYBLOCK
 62
     3
 10
10.0
 20
0.0000000000000087
 30
0.0
  0
LINE
  5
21EA
  8
0
  6
BYBLOCK
 62
     3
 10
10.0
 20
100.0
 30
0.0
 11
30.61509642293683
 21
100.0
 31
0.0
  0
LINE
  5
21EB
  8
0
  6
BYBLOCK
 62
     3
 10
10.5
 20
0.0000000000000142
 30
0.0
 11
30.61509642293683
 21
0.0000000000000142
 31
0.0
  0
LINE
  5
21EC
  8
0
  6
BYBLOCK
 62
     3
 10
30.11509642293683
 20
100.0
 30
0.0
 11
30.11509642293683
 21
0.0000000000000142
 31
0.0
  0
SOLID
  5
21ED
  8
0
  6
BYBLOCK
 62
     3
 10
30.11509642293683
 20
100.0
 30
0.0
 11
29.86509642293678
 21
98.5
 31
0.0
 12
30.36509642293688
 22
98.5
 32
0.0
 13
30.36509642293688
 23
98.5
 33
0.0
  0
SOLID
  5
21EE
  8
0
  6
BYBLOCK
 62
     3
 10
30.11509642293683
 20
0.0000000000000142
 30
0.0
 11
29.86509642293678
 21
1.500000000000014
 31
0.0
 12
30.36509642293688
 22
1.500000000000014
 32
0.0
 13
30.36509642293688
 23
1.500000000000014
 33
0.0
  0
TEXT
  5
21EF
  8
0
  6
CONTINUOUS
 62
     3
 10
30.0210203359803
 20
47.61904761904763
 30
0.0
 40
2.0
  1
100
 50
90.0
  7
돋움
  0
ENDBLK
  8
0
  0
BLOCK
  8
0
  2
*D3
 70
     1
 10
0.0
 20
0.0
 30
0.0
  0
POINT
  5
21F8
  8
DEFPOINTS
  6
BYBLOCK
 62
     3
 10
-10.0
 20
-0.0000000000000016
 30
0.0
  0
POINT
  5
21F9
  8
DEFPOINTS
  6
BYBLOCK
 62
     3
 10
10.0
 20
0.0000000000000087
 30
0.0
  0
LINE
  5
21FA
  8
0
  6
BYBLOCK
 62
     3
 10
-10.0
 20
-0.5000000000000016
 30
0.0
 11
-10.0
 21
-8.037487042774954
 31
0.0
  0
LINE
  5
21FB
  8
0
  6
BYBLOCK
 62
     3
 10
10.0
 20
-0.4999999999999913
 30
0.0
 11
10.0
 21
-8.037487042774954
 31
0.0
  0
LINE
  5
21FC
  8
0
  6
BYBLOCK
 62
     3
 10
-10.0
 20
-7.537487042774954
 30
0.0
 11
10.0
 21
-7.537487042774954
 31
0.0
  0
SOLID
  5
21FD
  8
0
  6
BYBLOCK
 62
     3
 10
-10.0
 20
-7.537487042774954
 30
0.0
 11
-8.5
 21
-7.787487042775004
 31
0.0
 12
-8.5
 22
-7.287487042774904
 32
0.0
 13
-8.5
 23
-7.287487042774904
 33
0.0
  0
SOLID
  5
21FE
  8
0
  6
BYBLOCK
 62
     3
 10
10.0
 20
-7.537487042774954
 30
0.0
 11
8.5
 21
-7.787487042775004
 31
0.0
 12
8.5
 22
-7.287487042774904
 32
0.0
 13
8.5
 23
-7.287487042774904
 33
0.0
  0
INSERT
  5
21FF
  8
0
  6
BYBLOCK
 62
     3
  2
*X7
 10
0.0
 20
0.0
 30
0.0
  0
ENDBLK
  8
0
  0
BLOCK
  8
0
  2
*D4
 70
     1
 10
0.0
 20
0.0
 30
0.0
  0
POINT
  5
20D0
  8
DEFPOINTS
  6
BYBLOCK
 62
     3
 10
9.5
 20
38.0
 30
0.0
  0
POINT
  5
20D1
  8
DEFPOINTS
  6
BYBLOCK
 62
     3
 10
10.0
 20
0.0000000000000087
 30
0.0
  0
LINE
  5
20D2
  8
0
  6
BYBLOCK
 62
     3
 10
10.0
 20
38.0
 30
0.0
 11
20.04387914148044
 21
38.0
 31
0.0
  0
LINE
  5
20D3
  8
0
  6
BYBLOCK
 62
     3
 10
10.5
 20
0.0000000000000071
 30
0.0
 11
20.04387914148044
 21
0.0000000000000071
 31
0.0
  0
LINE
  5
20D4
  8
0
  6
BYBLOCK
 62
     3
 10
19.54387914148044
 20
38.0
 30
0.0
 11
19.54387914148044
 21
0.0000000000000071
 31
0.0
  0
SOLID
  5
20D5
  8
0
  6
BYBLOCK
 62
     3
 10
19.54387914148044
 20
38.0
 30
0.0
 11
19.29387914148039
 21
36.5
 31
0.0
 12
19.79387914148049
 22
36.5
 32
0.0
 13
19.79387914148049
 23
36.5
 33
0.0
  0
SOLID
  5
20D6
  8
0
  6
BYBLOCK
 62
     3
 10
19.54387914148044
 20
0.0000000000000071
 30
0.0
 11
19.29387914148039
 21
1.500000000000007
 31
0.0
 12
19.79387914148049
 22
1.500000000000007
 32
0.0
 13
19.79387914148049
 23
1.500000000000007
 33
0.0
  0
TEXT
  5
20D7
  8
0
  6
CONTINUOUS
 62
     3
 10
19.44980305452392
 20
17.38095238095238
 30
0.0
 40
2.0
  1
38
 50
90.0
  7
돋움
  0
ENDBLK
  8
0
  0
BLOCK
  8
0
  2
*D5
 70
     1
 10
0.0
 20
0.0
 30
0.0
  0
POINT
  5
21D8
  8
DEFPOINTS
  6
BYBLOCK
 62
     3
 10
10.0
 20
0.0000000000000087
 30
0.0
  0
POINT
  5
21D9
  8
DEFPOINTS
  6
BYBLOCK
 62
     3
 10
10.0
 20
55.0
 30
0.0
  0
LINE
  5
21DA
  8
0
  6
BYBLOCK
 62
     3
 10
10.5
 20
0.0000000000000087
 30
0.0
 11
25.25888546509901
 21
0.0000000000000087
 31
0.0
  0
LINE
  5
21DB
  8
0
  6
BYBLOCK
 62
     3
 10
10.5
 20
55.0
 30
0.0
 11
25.25888546509901
 21
55.0
 31
0.0
  0
LINE
  5
21DC
  8
0
  6
BYBLOCK
 62
     3
 10
24.75888546509901
 20
0.0000000000000087
 30
0.0
 11
24.75888546509901
 21
55.0
 31
0.0
  0
SOLID
  5
21DD
  8
0
  6
BYBLOCK
 62
     3
 10
24.75888546509901
 20
0.0000000000000087
 30
0.0
 11
25.00888546509906
 21
1.500000000000009
 31
0.0
 12
24.50888546509896
 22
1.500000000000009
 32
0.0
 13
24.50888546509896
 23
1.500000000000009
 33
0.0
  0
SOLID
  5
21DE
  8
0
  6
BYBLOCK
 62
     3
 10
24.75888546509901
 20
55.0
 30
0.0
 11
25.00888546509906
 21
53.5
 31
0.0
 12
24.50888546509896
 22
53.5
 32
0.0
 13
24.50888546509896
 23
53.5
 33
0.0
  0
TEXT
  5
21DF
  8
0
  6
CONTINUOUS
 62
     3
 10
24.66480937814249
 20
25.88095238095238
 30
0.0
 40
2.0
  1
55
 50
90.0
  7
돋움
  0
ENDBLK
  8
0
  0
BLOCK
  8
0
  2
*X6
 70
     1
 10
0.0
 20
0.0
 30
0.0
  0
TEXT
  5
2234
  8
0
  6
CONTINUOUS
 62
     3
 10
-2.854490450352849
 20
102.7463843868028
 30
0.0
 40
2.0
  1
\U+2205
  7
돋움
  0
TEXT
  5
2235
  8
0
  6
CONTINUOUS
 62
     3
 10
-1.044966640829039
 20
102.7463843868028
 30
0.0
 40
2.0
  1
20
  7
돋움
  0
ENDBLK
  8
0
  0
BLOCK
  8
0
  2
*X7
 70
     1
 10
0.0
 20
0.0
 30
0.0
  0
TEXT
  5
2237
  8
0
  6
CONTINUOUS
 62
     3
 10
-2.523809523809524
 20
-7.393139216687997
 30
0.0
 40
2.0
  1
\U+2205
  7
돋움
  0
TEXT
  5
2238
  8
0
  6
CONTINUOUS
 62
     3
 10
-0.7142857142857144
 20
-7.393139216687997
 30
0.0
 40
2.0
  1
20
  7
돋움
  0
ENDBLK
  8
0
  0
ENDSEC
  0
SECTION
  2
ENTITIES
  0
LINE
  5
394
  8
0
 10
-9.5
 20
100.0
 30
0.0
 11
9.5
 21
100.0
 31
0.0
  0
LINE
  5
398
  8
0
 10
-10.0
 20
-0.0000000000000016
 30
0.0
 11
-10.0
 21
99.5
 31
0.0
  0
LINE
  5
399
  8
0
 10
10.0
 20
0.0000000000000087
 30
0.0
 11
10.0
 21
99.5
 31
0.0
  0
LINE
  5
39C
  8
0
 10
-10.0
 20
99.5
 30
0.0
 11
10.0
 21
99.5
 31
0.0
  0
LINE
  5
39D
  8
0
 10
-10.0
 20
99.5
 30
0.0
 11
-9.5
 21
100.0
 31
0.0
  0
LINE
  5
39E
  8
0
 10
10.0
 20
99.5
 30
0.0
 11
9.5
 21
100.0
 31
0.0
  0
DIMENSION
  5
39F
  8
0
  2
*D1
 10
10.0
 20
102.6020365607158
 30
0.0
 11
-0.3306809265433256
 21
102.6020365607158
 31
0.0
 70
   160
  1
%%c<>
 13
-10.0
 23
99.5
 33
0.0
 14
10.0
 24
99.5
 34
0.0
  0
DIMENSION
  5
89F
  8
0
  2
*D2
 10
30.11509642293683
 20
0.0000000000000075
 30
0.0
 11
29.0210203359803
 21
50.00000000000001
 31
0.0
 70
    32
 13
9.5
 23
100.0
 33
0.0
 14
10.0
 24
0.0000000000000087
 34
0.0
 50
90.0
  0
LINE
  5
1932
  8
0
 10
-10.0
 20
-0.0000000000000016
 30
0.0
 11
10.0
 21
0.0000000000000087
 31
0.0
  0
DIMENSION
  5
19A3
  8
0
  2
*D3
 10
10.0
 20
-7.537487042774954
 30
0.0
 11
0.0
 21
-6.393139216687997
 31
0.0
 70
    32
  1
%%C<>
 13
-10.0
 23
-0.0000000000000016
 33
0.0
 14
10.0
 24
0.0000000000000087
 34
0.0
  0
DIMENSION
  5
1C12
  8
0
  2
*D4
 10
19.54387914148044
 20
0.0000000000000081
 30
0.0
 11
18.44980305452392
 21
19.0
 31
0.0
 70
    32
 13
9.5
 23
38.0
 33
0.0
 14
10.0
 24
0.0000000000000087
 34
0.0
 50
90.0
  0
DIMENSION
  5
21AC
  8
0
  2
*D5
 10
24.75888546509901
 20
55.0
 30
0.0
 11
23.66480937814249
 21
27.5
 31
0.0
 70
    32
 13
10.0
 23
0.0000000000000087
 33
0.0
 14
10.0
 24
55.0
 34
0.0
 50
90.0
  0
ENDSEC
  0
EOF
